Завантажити та скачати торренти українською


VA - У колі друзів (live 30.10.2007) [Серія "Jazz Коло"] (2008) [WV] | Jazz

Нові коментарі

Нова тема   Відповісти
Останній раз роздавалося ssTAss (2016-11-27)
Автор Повідомлення
ssTAss 
Модератор музики


З нами з: 05.07.08
Востаннє: 08.12.16
Повідомлень: 10947

2013-04-21 22:19  
VA - У колі друзів (live 30.10.2007) [Серія "Jazz Коло"] (2008) [WV] | Jazz

VA - У колі друзів (live 30.10.2007) [Серія "Jazz Коло"] (2008) [WV] | Jazz


Стиль: Jazz
Країна, місто: Україна, Київ
Видавець: Comp music
Виконавці:
- Овсяников–Єресько Супер-Бенд
- акустичний, електричний квартет Родіона Іванова
- дует, тріо Наталії Лебедєвої
- Юлія Рома "Night Groove"
- Кактус Фреш
- Ігор Закус "Z-Band"
Пісні:
    1. Morning After (Овсяников & Єресько Band)
    музика: comp. С. Овсяников, arr. І. Єресько
    2. Silver Blues (Овсяников & Єресько Band)
    музика: comp. С. Овсяников, arr. І. Єресько
    3. Another Day With You
    музика: Р. Іванов
    4. Spring/Джерело
    музика: Р. Іванов
    5. All the Things You Need (Тріо Наталії Лебедєвої)
    музика: Н. Лебедєва
    6. Al Claps (Тріо Наталії Лебедєвої)
    музика: Н. Лебедєва
    7. On the Wings Of Songs (Юлія Рома)
    музика: Ю. Рома
    8. People (Юлія Рома)
    музика: Ю. Рома
    9. Gagarin
    музика: Ю. Койніченко
    10. Double Fresh (Тріо Наталії Лебедєвої)
    музика: Н. Лебедєва
    11. Знову під враженням (Z-Band, Ігор Закус)
    музика: І. Закус
    12. У колі друзів (Ігор Закус, Z-Band)
    музика: І. Закус
log
Exact Audio Copy V1.0 beta 3 from 29. August 2011

EAC extraction logfile from 17. March 2013, 0:31

Various / У колі друзів. Jazz-коло live

Used drive : SAMSUNG CD-ROM SC-152C Adapter: 0 ID: 0

Read mode : Secure
Utilize accurate stream : Yes
Defeat audio cache : Yes
Make use of C2 pointers : No

Read offset correction : 600
Overread into Lead-In and Lead-Out : No
Fill up missing offset samples with silence : Yes
Delete leading and trailing silent blocks : No
Null samples used in CRC calculations : Yes
Used interface : Native Win32 interface for Win NT & 2000

Used output format : User Defined Encoder
Selected bitrate : 1024 kBit/s
Quality : High
Add ID3 tag : No
Command line compressor : C:\Blade\Programs\wavpack-4.60.1\wavpack.exe
Additional command line options : -hlmx2 %source% %dest%

TOC of the extracted CD

Track | Start | Length | Start sector | End sector
---------------------------------------------------------
1 | 0:00.00 | 7:01.36 | 0 | 31610
2 | 7:01.36 | 7:24.22 | 31611 | 64932
3 | 14:25.58 | 6:19.39 | 64933 | 93396
4 | 20:45.22 | 4:54.09 | 93397 | 115455
5 | 25:39.31 | 5:51.24 | 115456 | 141804
6 | 31:30.55 | 5:40.41 | 141805 | 167345
7 | 37:11.21 | 3:34.68 | 167346 | 183463
8 | 40:46.14 | 7:42.35 | 183464 | 218148
9 | 48:28.49 | 7:47.43 | 218149 | 253216
10 | 56:16.17 | 7:23.17 | 253217 | 286458
11 | 63:39.34 | 9:41.33 | 286459 | 330066
12 | 73:20.67 | 6:19.08 | 330067 | 358499

Range status and errors

Selected range

Filename C:\Blade\music\work\Best Ukrainian Musicians Comp Jazz\VA - 2008 - U koli druziv Jazz-kolo live\VA - 2008 - U koli druziv Jazz-kolo live.wav

Peak level 98.6 %
Extraction speed 1.4 X
Range quality 99.9 %
Test CRC 2D0C0A9E
Copy CRC 2D0C0A9E
Copy OK

No errors occurred

AccurateRip summary

Track 1 not present in database
Track 2 not present in database
Track 3 not present in database
Track 4 not present in database
Track 5 not present in database
Track 6 not present in database
Track 7 not present in database
Track 8 not present in database
Track 9 not present in database
Track 10 not present in database
Track 11 not present in database
Track 12 not present in database

None of the tracks are present in the AccurateRip database

End of status report

---- CUETools DB Plugin V2.1.3

[CTDB TOCID: Z10pxakMsxotDXMMml28Hhpkhqk-] disk not present in database, Submit result: database access error: The request was aborted: The request was canceled.

==== Log checksum 989576C8FDDE4346FC1FA543CF56EF4438C6D97B69E50BBCDC7DBA7F3BBE589C ====
fooCDtect
fooCDtect - foobar2000 + auCDtect, baralgin.

auCDtect: CD records authenticity detector, version 0.8.2
Copyright (c) 2004 Oleg Berngardt. All rights reserved.
Copyright (c) 2004 Alexander Djourik. All rights reserved.

mode: 0

===========================================
Track: 01 - Morning After
Quality: CDDA 100%
===========================================
Track: 02 - Silver Blues
Quality: CDDA 100%
===========================================
Track: 03 - Another Day With You
Quality: CDDA 100%
===========================================
Track: 04 - Spring-Джерело
Quality: CDDA 100%
===========================================
Track: 05 - All the Things You Need
Quality: CDDA 86%
===========================================
Track: 06 - Al Claps
Quality: CDDA 100%
===========================================
Track: 07 - On the Wings of Songs
Quality: CDDA 100%
===========================================
Track: 08 - People
Quality: CDDA 99%
===========================================
Track: 09 - Gagarin
Quality: CDDA 100%
===========================================
Track: 10 - Double Fresh
Quality: CDDA 100%
===========================================
Track: 11 - Знову під враженням
Quality: CDDA 100%
===========================================
Track: 12 - У колі друзів
Quality: CDDA 100%
===========================================
Тривалість: 01:19:40
Мова: відсутня, англійська (7,8)
Аудіо-кодек: WavPack
Бітрейт: 816 кб/с
Джерело: нетлаб
Додаткова інформація:
Не секрет, що далеко не всім подобаються "збірні солянки", адже часто в таких концертах не встигаєш як слід почути-відчути одних, як вже їхнє місце займають інші – і так весь час. Але бувають приємні виключення – і новий диск проекту Jazz-Коло заслуговує саме на таке ставлення. Тим більше, що цей концерт-закриття першого сезону зібрав джазменів, практично кожен з яких відноситься до числа кращих у країні. Це не означає, що абсолютно всі представлені тут п’єси звучали довершено і потужно – так, мабуть, просто не буває в подібних випадках. Але весь концерт слухається на одному диханні – це правда. Фарби постійно міняються, змішуються, інколи у доволі дивних напрямках – адже деякі музиканти мігрують з одного складу до іншого, практично не полишаючи сцену. Як наслідок, виникає абсолютна тепла, дружня, "своя" атмосфера – дивовижно сполучаються тут відчуття великої сцени і, одночасно, відчуття майже сімейного джему у маленькому клубі. У якийсь момент стає настільки затишно, що сцена і зал утворюють спільне коло – не випадково диск отримав назву "У колі друзів". Власне, проект Jazz-Коло знову виправдав свою назву на всі сто, і того вечора в залі було тепло всім – принаймні, жодного холодного погляду після концерту особисто я не побачив. Щоправда, сидів тоді у першому ряду) Словом, слухайте музику – і, за нагоди, обов’язково відвідайте концерт.


Якщо Ви справді бажаєте підтримати українське - після прослуховування, якщо музика вам сподобалась,
придбайте ліцензійний диск.
Підтримаймо вітчизняних виконавців!


Срібний реліз (на рейтинг впливає 50% завантаженого)
 Трекер:    Зареєстрований   

Завантажити / скачати українську музику



відео для новачків



 Зареєстрований:   2013-04-21 22:19
 Розмір:   513 MB 
 Оцінка музики:   6.6/10 (Голосів: 8)
   
Ваш часовий пояс: GMT + 2 Години

Нова тема   Відповісти