Завантажити та скачати торренти українською


Схід-Side - SkhidSideMen (2006) [WV] | Jazz

Нові коментарі

Нова тема   Відповісти
Автор Повідомлення
ssTAss 
Модератор музики


З нами з: 05.07.08
Востаннє: 09.12.16
Повідомлень: 10948

2013-04-21 21:49  
Схід-Side - SkhidSideMen (2006) [WV] | Jazz

Схід-Side - SkhidSideMen (2006) [WV] | Jazz


Стиль: Jazz
Країна, місто: Україна, Харків
Сайти: Офіційний сайт
Видавець: Comp music
Виконавці:
Дмитро "Бобін" Александров – тенор-саксофон
Володимир Шабалтас – гітара
Ілля Єресько – рояль
Валентин Корнієнко – контрабас, бас-гітара
Олександр Лебеденко – ударні
Пісні:
    1. SkhidSideMen
    2. Regent St.
    3. 19:60
    4. Nikita's Dreams
    5. Autumn in the Glier School
    6. Mr. Blue Tooth
log
Exact Audio Copy V1.0 beta 3 from 29. August 2011

EAC extraction logfile from 15. March 2013, 0:11

Схід-Side / SkhidSideMen

Used drive : SAMSUNG CD-ROM SC-152C Adapter: 0 ID: 0

Read mode : Secure
Utilize accurate stream : Yes
Defeat audio cache : Yes
Make use of C2 pointers : No

Read offset correction : 600
Overread into Lead-In and Lead-Out : No
Fill up missing offset samples with silence : Yes
Delete leading and trailing silent blocks : No
Null samples used in CRC calculations : Yes
Used interface : Native Win32 interface for Win NT & 2000

Used output format : User Defined Encoder
Selected bitrate : 1024 kBit/s
Quality : High
Add ID3 tag : No
Command line compressor : C:\Blade\Programs\wavpack-4.60.1\wavpack.exe
Additional command line options : -hlmx2 %source% %dest%

TOC of the extracted CD

Track | Start | Length | Start sector | End sector
---------------------------------------------------------
1 | 0:00.00 | 8:49.61 | 0 | 39735
2 | 8:49.61 | 10:10.20 | 39736 | 85505
3 | 19:00.06 | 10:29.26 | 85506 | 132706
4 | 29:29.32 | 6:55.11 | 132707 | 163842
5 | 36:24.43 | 5:46.65 | 163843 | 189857
6 | 42:11.33 | 8:17.45 | 189858 | 227177

Range status and errors

Selected range

Filename C:\Blade\music\work\Best Ukrainian Musicians Comp Jazz\Skhid-Side - 2005 - SkhidSideMen\Skhid-Side - 2005 - SkhidSideMen.wav

Peak level 98.7 %
Extraction speed 1.2 X
Range quality 99.9 %
Test CRC 6E342710
Copy CRC 6E342710
Copy OK

No errors occurred

AccurateRip summary

Track 1 accurately ripped (confidence 1) [A687F734] (AR v1)
Track 2 accurately ripped (confidence 1) [C1E5B531] (AR v1)
Track 3 accurately ripped (confidence 1) [7E34B37A] (AR v1)
Track 4 accurately ripped (confidence 1) [F68CCA39] (AR v1)
Track 5 accurately ripped (confidence 1) [907A91BC] (AR v1)
Track 6 accurately ripped (confidence 1) [6D29CCFE] (AR v1)

All tracks accurately ripped

End of status report

---- CUETools DB Plugin V2.1.3

[CTDB TOCID: 5MOYCks5qjv.XmwvNzOYsWLr.F0-] disk not present in database, Submit result: database access error: The request was aborted: The request was canceled.

==== Log checksum 96102C4B179C59CAE848C8555737DED8779D2A51060A5AD2E01FFFD5EF627B3A ====
fooCDtect
fooCDtect - foobar2000 + auCDtect, baralgin.

auCDtect: CD records authenticity detector, version 0.8.2
Copyright (c) 2004 Oleg Berngardt. All rights reserved.
Copyright (c) 2004 Alexander Djourik. All rights reserved.

mode: 0

===========================================
Track: 01 - SkhidSideMan
Quality: CDDA 100%
===========================================
Track: 02 - Regent St.
Quality: CDDA 100%
===========================================
Track: 03 - 19-60
Quality: CDDA 100%
===========================================
Track: 04 - Nikita's Dreams
Quality: CDDA 100%
===========================================
Track: 05 - Autumn in the Glier School
Quality: CDDA 100%
===========================================
Track: 06 - Mr. BlueTooth
Quality: CDDA 100%
===========================================
Тривалість: 00:50:29
Мова: відсутня
Аудіо-кодек: WavPack
Бітрейт: 850 кб/с
Джерело: нетлаб
Додаткова інформація:
"СхідSide" сьогодні – один із найбільш якісних, успішних та активних українських джазових проектів. Це при тому, що за останні два роки склад бенду змінився тричі, і сьогодні від першого складу залишився тільки фронтмен – саксофоніст Дмитро Александров. Але його енергії вистачає і на те, щоб "вести" паралельно ще два джазових проекти, і на те, щоб приймати участь у записах музики інших напрямків, і на довгі щоденні вправи, і... втім, нічого дивного. Зовні такий простий, він має в очах ті самі вогники, які відрізняють людину натхненну від втомленої. Він з тих людей, які, коли починається музика, зникають – залишається тільки музика, така різна, але завжди жива. Саме тому вона змінює час і простір – саме тому про майстерність виконання я навіть і не кажу, і так зрозуміло. На щастя, у нас в країні сьогодні немало таких музикантів – справжніх. І, на превелике моє задоволення, їх стає чутно краще. До речі, про справжнє. Самі музиканти гурту казали про свій альбом "SkhidSideMen", що світ побачив чистий джаз. Не сперечатимуся – бо особисто у мене виникло саме таке відчуття щодо цієї музики. Відчуття чистого, чесного, простого в своїй мудрості – вогню... І сумніву немає, це – справжнє.
Антон Йожик Лейба


Якщо Ви справді бажаєте підтримати українське - після прослуховування, якщо музика вам сподобалась,
придбайте ліцензійний диск.
Підтримаймо вітчизняних виконавців!


Срібний реліз (на рейтинг впливає 50% завантаженого)
 Трекер:    Зареєстрований   

Завантажити / скачати українську музику



відео для новачків



 Зареєстрований:   2013-04-21 21:49
 Розмір:   348 MB 
 Оцінка музики:   5.5/10 (Голосів: 6)
   
Ваш часовий пояс: GMT + 2 Години

Нова тема   Відповісти