Завантажити та скачати торренти українською


Державний театр опери та балету УРСР ім. Шевченка - Милана (2CD) (2005) [FLAC] | Opera

Нові коментарі

Нова тема   Відповісти
Останній раз роздавалося Myfordownloads (2016-10-09)
Автор Повідомлення
Khtos 
Свій


З нами з: 24.06.09
Востаннє: 02.12.16
Повідомлень: 107

2013-04-20 23:41  
Державний театр опери та балету УРСР ім. Шевченка - Милана (2CD) (2005) [FLAC] | Opera

Державний театр опери та балету УРСР ім. Шевченка - Милана (2CD) (2005) [FLAC] | Opera


Стиль: Opera, Classic
Країна, місто: Україна, Київ
Сайти: Офіційний сайт Національної опери України
Видавець: ТОВ "Вектор-Вега"
Лібрето: Агата Турчинська
Виконавці:
Київський державний академічний театр опери та балету ім. Т.Г.Шевченка
Симфонічний оркестр, хор Українського театра опери та балету
Диригент - Стефан Турчак
Хормейстер: Л.Венедиктов.

Милана - Л. Кравченко,
Шибак - С. Козак,
Рущак – Г. Красуля,
Йолан - Б. Руденко,
Мартин - Д. Гнатюк,
а також: Я. Головчук, В. Терехов, В. Скубак, І. Клякун, Є. Озимковська, В. Миркотан, В. Герасимчук, Л. Семененко.
Пісні:
    Диск 1
    1. Увертюра - Дія перша (початок)
    2. Дія перша (закінчення)
    3. Дія друга (початок)
    Диск 2
    1. Дія друга (закінчення)
    2. Дія третя
    3. Дія четверта

Тривалість: CD1 01:04:27, CD2 01:08:10
Мова: українська
Аудіо-кодек: FLAC
Бітрейт: CD1 - 633 кб/с, CD2 - 633 кб/с
Джерело: власний ріп
Додаткова інформація:
сюжет

Дія перша.
Закарпаття. Весняний вечір 1939 року. Милана виглядає коханого - партизана Василя.
Парубки глузують з сільського старости - профашиста Шибака, який на догоду окупантам прибрав собі мадьярське ім'я Шимперлі. Лютує підбрехач Шибака - місцевий багатій Климпуш.
Флейс картає Шибака за погану службу, за недостатню боротьбу з комуністами. Він дає Шибакові підступне завдання: закохати в себе місцеву дівчину і через неї вивідати задуми комунистів.
Дія друга.
З'являється переодягнутий на діда підпільник комуніст Рущак. Селяни звіряють йому тяжкі думи про своє життя.
Василь радісно розповідає про братання Києва і Львова. Гафа й Милана запрошують усіх до хати на учту. Рущак, Милана, Йолан, Мартин та Василь затримується. Йолан передає своїм товаришам листівки. Рущак дає підпільникам бойове завдання.
Озвірілі жандарми хапають кількох селян, Василя, Мартина і Милану. Побачивши серед заарештованих Милану, Шибак голосно наказує: "Цю відпустіть. Вона не їхня, наша!"
Дія третя.
У напівзгорілій колибі ховається Милана. Йолан розповідає їй. що Василь урятувався, й нині перебуває в Радянському Союзі.
Рущак прийшов дати Милані бойове завдання: перейти фронт і показати бійцям Радянської Армії, як без великих втрат обійти лінію "Арпада". Милана безмежно рада: їй вірят, не вважають зрадницею.
Дія четверта.
1944-й рік. Від Радянської влади тікають хортистські недобитки. Пропонують тікати й Шибакові. Смертельна небезпека нависла над Миланою, але дівчина непохитна. Не переможеною, а переможницею іде вона від Шибака. Шибак стріляє їй у спину.
З'являються радянські солдати, їх веде Василь. Солдати обережно несуть смертельно поранену Милану...
лог 1

Exact Audio Copy V1.0 beta 3 from 29. August 2011

EAC extraction logfile from 20. April 2013, 23:42

Державний театр опери та балету УРСР ім. Шевченка / Милана

Used drive : hp DVD A DS8A5LH Adapter: 0 ID: 1

Read mode : Secure
Utilize accurate stream : Yes
Defeat audio cache : Yes
Make use of C2 pointers : No

Read offset correction : 6
Overread into Lead-In and Lead-Out : No
Fill up missing offset samples with silence : Yes
Delete leading and trailing silent blocks : No
Null samples used in CRC calculations : Yes
Used interface : Native Win32 interface for Win NT & 2000

Used output format : User Defined Encoder
Selected bitrate : 1024 kBit/s
Quality : High
Add ID3 tag : No
Command line compressor : C:\Program Files (x86)\Exact Audio Copy\Flac\flac.exe
Additional command line options : -V -8 -T "Date=%year%" -T "Genre=%genre%" %source%

TOC of the extracted CD

Track | Start | Length | Start sector | End sector
---------------------------------------------------------
1 | 0:00.00 | 22:27.01 | 0 | 101025
2 | 22:27.01 | 21:00.43 | 101026 | 195568
3 | 43:27.44 | 20:59.43 | 195569 | 290036

Range status and errors

Selected range

Filename D:\Music\Loseless\Mylana\Державний театр опери та балету УРСР ім. Шевченка - Милана (CD 1).wav

Peak level 46.8 %
Extraction speed 4.7 X
Range quality 99.9 %
Test CRC 077C3821
Copy CRC 077C3821
Copy OK

No errors occurred

AccurateRip summary

Track 1 not present in database
Track 2 not present in database
Track 3 not present in database

None of the tracks are present in the AccurateRip database

End of status report

==== Log checksum 5D2D4A8A83D52C59FC4B498956FFF1482E2179C0A913951937D63F40DE515971 ====
лог 2

Exact Audio Copy V1.0 beta 3 from 29. August 2011

EAC extraction logfile from 21. April 2013, 0:25

Державний театр опери та балету УРСР ім. Шевченка / Милана

Used drive : hp DVD A DS8A5LH Adapter: 0 ID: 1

Read mode : Secure
Utilize accurate stream : Yes
Defeat audio cache : Yes
Make use of C2 pointers : No

Read offset correction : 6
Overread into Lead-In and Lead-Out : No
Fill up missing offset samples with silence : Yes
Delete leading and trailing silent blocks : No
Null samples used in CRC calculations : Yes
Used interface : Native Win32 interface for Win NT & 2000

Used output format : User Defined Encoder
Selected bitrate : 1024 kBit/s
Quality : High
Add ID3 tag : No
Command line compressor : C:\Program Files (x86)\Exact Audio Copy\Flac\flac.exe
Additional command line options : -V -8 -T "Date=%year%" -T "Genre=%genre%" %source%

TOC of the extracted CD

Track | Start | Length | Start sector | End sector
---------------------------------------------------------
1 | 0:00.00 | 20:19.51 | 0 | 91475
2 | 20:19.51 | 25:23.03 | 91476 | 205703
3 | 45:42.54 | 22:27.67 | 205704 | 306795

Range status and errors

Selected range

Filename D:\Music\Loseless\Mylana\Державний театр опери та балету УРСР ім. Шевченка - Милана (CD 2).wav

Peak level 45.7 %
Extraction speed 4.7 X
Range quality 99.9 %
Test CRC 521AD587
Copy CRC 521AD587
Copy OK

No errors occurred

AccurateRip summary

Track 1 not present in database
Track 2 not present in database
Track 3 not present in database

None of the tracks are present in the AccurateRip database

End of status report

==== Log checksum 8BEC5D78EF8E1E7C9746522D51723D6D9C45741DCBEED111F4B3BE89D9C6B473 ====


Срібний реліз (на рейтинг впливає 50% завантаженого)
 Трекер:    Зареєстрований   

Завантажити / скачати українську музику



відео для новачків



 Зареєстрований:   2013-04-20 23:41
 Розмір:   593 MB 
 Оцінка музики:   10/10 (Голосів: 1)
   
Ваш часовий пояс: GMT + 2 Години

Нова тема   Відповісти