Завантажити та скачати торренти українською


Адреналін - Дилогія / Crank - Dilogy (2006, 2009) 1080p 2хUkr/Eng | Sub Eng

Нові коментарі

Нова тема   Відповісти
Автор Повідомлення
Anonymous 







2013-04-20 22:00  
Адреналін - Дилогія / Crank - Dilogy (2006, 2009) 1080p 2хUkr/Eng | Sub Eng

Адреналін - Дилогія / Crank - Dilogy (2006, 2009) 1080p 2хUkr/Eng | Sub Eng


рейтинг MPAA: R - особам до 17 років обов'язкова присутність батьків або дорослого опікуна
Вікова категорія: 18+
Адреналін / Crank (2006) 1080p 2xUkr/Eng |Sub Eng

Адреналін / Crank (2006) 1080p 2xUkr/Eng | Sub Eng


Альтернативний український постер


Жанр: бойовик, трилер, кримінальний
Країна: США



Кіностудія / кінокомпанія: Lions Gate Films, Lakeshore Entertainment, Radical Media
Режисер: Марк Невелдайн / Mark Neveldine/, Брайан Тейлор /Brian Taylor
Актори: Джейсон Стетхем / Jason Statham, Емі Смарт / Amy Smart, Ефрен Рамірез / Efren Ramirez, Дуайт Йокем / Dwight Yoakam, Хосе Пабло Кантільо / Jose Pablo Cantillo, Рено Вілсон / Reno Wilson та інші.

Сюжет:
Найманий вбивця Чев Челіос дізнається, що вороги його отруїли рідкісною китайською отрутою і вона почне діяти, якщо у Чева впаде рівень адреналіну в крові. І ось тепер Чеву потрібно знайти антидот проти отрути, врятувати свою дівчину та помститися ворогам - і все це поспіхом, у напруженні, не розслабляючись ні на секунду.


рейтинг MPAA: R - особам до 17 років обов'язкова присутність батьків або дорослого опікуна
Вікова категорія: 18+

Тривалість: 01:27:42
Якість: 1080p
Відео:
кодек:
розмір кадру: 1920x1080
бітрейт: 11692 кб/с

Аудіо # 1:
мова: українська
переклад: багатоголосий закадровий - "ТакТреба Продакшн", запис з
кодек: 5.1
бітрейт: 448 кб/с

Аудіо # 2:
мова: українська
переклад: багатоголосий закадровий
кодек: 5.1
бітрейт: 448 кб/с

Аудіо # 3:
мова: англійська
переклад: оригінал
кодек: 5.1
бітрейт: 640 кб/с

Субтитри # 1:
мова: англійська (повні)
тип: програмні (м'які)
формат: *.srt

Збережено оригінальні розділи, як на Blu-ray
MediaInfo
General
Unique ID : 229172587551246716118113568428432183602 (0xAC6908EDE15A9F8C9C62A1B4E7FE5132)
Complete name : Adrenalin.2006..1080p.2xUkr.Eng.mkv
Format : Matroska
Format version : Version 4 / Version 2
File size : 8.10 GiB
Duration : 1h 27mn
Overall bit rate : 13.2 Mbps
Movie name : Адреналін / Crank / Адреналин (2006)
Encoded date : UTC 2013-04-20 15:12:17
Writing application : mkvmerge v6.1.0 ('Old Devil') built on Mar 2 2013 14:32:37
Writing library : libebml v1.3.0 + libmatroska v1.4.0

Video
ID : 1
Format : AVC
Format/Info : Advanced Video Codec
Format profile : [email protected]
Format settings, CABAC : Yes
Format settings, ReFrames : 4 frames
Codec ID : V_MPEG4/ISO/AVC
Duration : 1h 27mn
Bit rate : 11.7 Mbps
Width : 1 920 pixels
Height : 1 080 pixels
Display aspect ratio : 16:9
Frame rate mode : Constant
Frame rate : 23.976 fps
Color space : YUV
Chroma subsampling : 4:2:0
Bit depth : 8 bits
Scan type : Progressive
Bits/(Pixel*Frame) : 0.235
Stream size : 7.00 GiB (86%)
Title : Адреналін / Crank / Адреналин (2006) [NoLimits-Team]
Writing library : core 130 r2273 b3065e6
Encoding settings : cabac=1 / ref=4 / deblock=1:0:0 / analyse=0x3:0x133 / me=umh / subme=11 / psy=1 / psy_rd=1.00:0.00 / mixed_ref=1 / me_range=64 / chroma_me=1 / trellis=2 / 8x8dct=1 / cqm=0 / deadzone=21,11 / fast_pskip=0 / chroma_qp_offset=-2 / threads=9 / lookahead_threads=2 / sliced_threads=0 / nr=0 / decimate=1 / interlaced=0 / bluray_compat=0 / constrained_intra=0 / bframes=12 / b_pyramid=2 / b_adapt=2 / b_bias=0 / direct=3 / weightb=1 / open_gop=0 / weightp=2 / keyint=240 / keyint_min=23 / scenecut=40 / intra_refresh=0 / rc_lookahead=60 / rc=2pass / mbtree=1 / bitrate=11692 / ratetol=1.0 / qcomp=0.60 / qpmin=0 / qpmax=69 / qpstep=4 / cplxblur=20.0 / qblur=0.5 / ip_ratio=1.40 / aq=1:1.00
Language : English
Default : Yes
Forced : No

Audio #1
ID : 2
Format : AC-3
Format/Info : Audio Coding 3
Mode extension : CM (complete main)
Format settings, Endianness : Big
Codec ID : A_AC3
Duration : 1h 27mn
Bit rate mode : Constant
Bit rate : 448 Kbps
Channel(s) : 6 channels
Channel positions : Front: L C R, Side: L R, LFE
Sampling rate : 48.0 KHz
Bit depth : 16 bits
Compression mode : Lossy
Stream size : 281 MiB (3%)
Title : MVO [TakTrebaProduction] 5.1 448 kbps [Hurtom-_oles]
Language : Ukrainian
Default : Yes
Forced : No

Audio #2
ID : 3
Format : AC-3
Format/Info : Audio Coding 3
Mode extension : CM (complete main)
Format settings, Endianness : Big
Codec ID : A_AC3
Duration : 1h 27mn
Bit rate mode : Constant
Bit rate : 448 Kbps
Channel(s) : 6 channels
Channel positions : Front: L C R, Side: L R, LFE
Sampling rate : 48.0 KHz
Bit depth : 16 bits
Compression mode : Lossy
Stream size : 281 MiB (3%)
Title : MVO [ICTV] 5.1 448 kbps [Hurtom-_oles]
Language : Ukrainian
Default : No
Forced : No

Audio #3
ID : 4
Format : AC-3
Format/Info : Audio Coding 3
Mode extension : CM (complete main)
Format settings, Endianness : Big
Codec ID : A_AC3
Duration : 1h 27mn
Bit rate mode : Constant
Bit rate : 640 Kbps
Channel(s) : 6 channels
Channel positions : Front: L C R, Side: L R, LFE
Sampling rate : 48.0 KHz
Bit depth : 16 bits
Compression mode : Lossy
Stream size : 401 MiB (5%)
Title : Original
Language : English
Default : No
Forced : No

Text
ID : 5
Format : UTF-8
Codec ID : S_TEXT/UTF8
Codec ID/Info : UTF-8 Plain Text
Title : Eng full
Language : English
Default : No
Forced : No

Menu
00:00:00.000 : :Chapter 01
00:06:46.114 : :Chapter 02
00:13:48.077 : :Chapter 03
00:17:12.281 : :Chapter 04
00:21:58.608 : :Chapter 05
00:26:43.935 : :Chapter 06
00:35:02.683 : :Chapter 07
00:39:16.354 : :Chapter 08
00:46:21.195 : :Chapter 09
00:53:55.232 : :Chapter 10
01:01:00.573 : :Chapter 11
01:06:40.287 : :Chapter 12
01:11:48.721 : :Chapter 13
01:15:10.756 : :Chapter 14
01:17:17.299 : :Chapter 15
01:20:10.722 : :Chapter 16
Адреналін 2. Висока напруга / Crank: High Voltage (2009) 1080p 2хUkr/Eng | Sub Eng

Адреналін 2. Висока напруга / Crank: High Voltage (2009) 1080p 2хUkr/Eng |Sub Eng



Жанр: кримінальний, бойовик, комедія, фентезі, треш
Країна: США



Кіностудія / кінокомпанія: Lions Gate, Lakeshore Entertainment, Radical Media
Режисер: Марк Невелдайн / Mark Neveldine, Брайан Тейлор / Brian Taylor
Актори: Джейсон Стетхем / Jason Statham, Емі Смарт / Amy Smart, Кліфтон Коллінз мол. / Clifton Collins Jr., Бай Лін / Ling Bai, Девід Керрадайн / David Carradine, Корі Хейм /Corey Haim та інші

Сюжет:
Цього разу Челіос стикається з китайською мафією, яка оживила його як донора органів для свого ватажка. Тріада замінила його, перевірене адреналіном у першій частині, серце на штучне. Тепер Чеву щоб вижити необхідно підзаряжатись електричним струмом...


рейтинг MPAA: R - особам до 17 років обов'язкова присутність батьків або дорослого опікуна
Вікова категорія: 18+

Тривалість: 01:35:50
Якість: 1080p
Відео:
кодек:
розмір кадру: 1920x1038
бітрейт: 10590 кб/с

Аудіо # 1:
мова: українська
переклад: багатоголосий закадровий - "ТакТреба Продакшн", запис з
кодек: 5.1
бітрейт: 448 кб/с

Аудіо # 2:
мова: українська
переклад: професійний дубльований
кодек: 5.1
бітрейт: 448 кб/с

Аудіо # 3:
мова: англійська
переклад: оригінал
кодек: 5.1
бітрейт: 640 кб/с

Субтитри # 1:
мова: українська (форсовані, на неперекладені моменти у титрах)
тип: програмні (м'які)
формат: *.srt

Субтитри # 2:
мова: англійська (повні)
тип: програмні (м'які)
формат: *.srt

Збережено оригінальні розділи, як на Blu-ray
MediaInfo
General
Unique ID : 198635269776321345540959844819667330024 (0x956FC2EB97D565259B6A264EA95523E8)
Complete name : Adrenalin.Dilogy.(2006-2009)..1080p.2xUkr.Eng\Adrenalin.2.2009..1080p.2xUkr.Eng.mkv
Format : Matroska
Format version : Version 4 / Version 2
File size : 8.03 GiB
Duration : 1h 35mn
Overall bit rate : 12.0 Mbps
Movie name : Адреналін 2. Висока напруга / Crank: High Voltage / Адреналин 2: Высокое напряжение (2009)
Encoded date : UTC 2013-04-20 19:37:04
Writing application : mkvmerge v6.1.0 ('Old Devil') built on Mar 2 2013 14:32:37
Writing library : libebml v1.3.0 + libmatroska v1.4.0

Video
ID : 1
Format : AVC
Format/Info : Advanced Video Codec
Format profile : [email protected]
Format settings, CABAC : Yes
Format settings, ReFrames : 4 frames
Codec ID : V_MPEG4/ISO/AVC
Duration : 1h 35mn
Bit rate : 10.6 Mbps
Width : 1 920 pixels
Height : 1 038 pixels
Display aspect ratio : 1.85:1
Frame rate mode : Constant
Frame rate : 23.976 fps
Color space : YUV
Chroma subsampling : 4:2:0
Bit depth : 8 bits
Scan type : Progressive
Bits/(Pixel*Frame) : 0.222
Stream size : 6.93 GiB (86%)
Title : Адреналін 2. Висока напруга / Crank: High Voltage / Адреналин 2: Высокое напряжение (2009) [NoLimits-Team]
Writing library : core 130 r2273 b3065e6
Encoding settings : cabac=1 / ref=4 / deblock=1:0:0 / analyse=0x3:0x133 / me=umh / subme=11 / psy=1 / psy_rd=1.00:0.00 / mixed_ref=1 / me_range=64 / chroma_me=1 / trellis=2 / 8x8dct=1 / cqm=0 / deadzone=21,11 / fast_pskip=0 / chroma_qp_offset=-2 / threads=9 / lookahead_threads=2 / sliced_threads=0 / nr=0 / decimate=1 / interlaced=0 / bluray_compat=0 / constrained_intra=0 / bframes=12 / b_pyramid=2 / b_adapt=2 / b_bias=0 / direct=3 / weightb=1 / open_gop=0 / weightp=2 / keyint=240 / keyint_min=23 / scenecut=40 / intra_refresh=0 / rc_lookahead=60 / rc=2pass / mbtree=1 / bitrate=10590 / ratetol=1.0 / qcomp=0.60 / qpmin=0 / qpmax=69 / qpstep=4 / cplxblur=20.0 / qblur=0.5 / ip_ratio=1.40 / aq=1:1.00
Language : English
Default : Yes
Forced : No

Audio #1
ID : 2
Format : AC-3
Format/Info : Audio Coding 3
Mode extension : CM (complete main)
Format settings, Endianness : Big
Codec ID : A_AC3
Duration : 1h 35mn
Bit rate mode : Constant
Bit rate : 384 Kbps
Channel(s) : 6 channels
Channel positions : Front: L C R, Side: L R, LFE
Sampling rate : 48.0 KHz
Bit depth : 16 bits
Compression mode : Lossy
Stream size : 263 MiB (3%)
Title : MVO [TakTrebaProduction] 5.1 384 kbps [Hurtom-_oles]
Language : Ukrainian
Default : Yes
Forced : No

Audio #2
ID : 3
Format : AC-3
Format/Info : Audio Coding 3
Mode extension : CM (complete main)
Format settings, Endianness : Big
Codec ID : A_AC3
Duration : 1h 35mn
Bit rate mode : Constant
Bit rate : 384 Kbps
Channel(s) : 6 channels
Channel positions : Front: L C R, Side: L R, LFE
Sampling rate : 48.0 KHz
Bit depth : 16 bits
Compression mode : Lossy
Stream size : 263 MiB (3%)
Title : Dub 5.1 384 kbps [Hurtom-_oles]
Language : Ukrainian
Default : No
Forced : No

Audio #3
ID : 4
Format : AC-3
Format/Info : Audio Coding 3
Mode extension : CM (complete main)
Format settings, Endianness : Big
Codec ID : A_AC3
Duration : 1h 35mn
Bit rate mode : Constant
Bit rate : 640 Kbps
Channel(s) : 6 channels
Channel positions : Front: L C R, Side: L R, LFE
Sampling rate : 48.0 KHz
Bit depth : 16 bits
Compression mode : Lossy
Stream size : 439 MiB (5%)
Title : Original
Language : English
Default : No
Forced : No

Text #1
ID : 5
Format : UTF-8
Codec ID : S_TEXT/UTF8
Codec ID/Info : UTF-8 Plain Text
Title : Ukr forced
Language : Ukrainian
Default : Yes
Forced : Yes

Text #2
ID : 6
Format : UTF-8
Codec ID : S_TEXT/UTF8
Codec ID/Info : UTF-8 Plain Text
Title : Eng full
Language : English
Default : No
Forced : No

Menu
00:00:00.000 : :Chapter 01
00:05:55.897 : :Chapter 02
00:09:38.494 : :Chapter 03
00:15:22.922 : :Chapter 04
00:20:45.452 : :Chapter 05
00:25:21.978 : :Chapter 06
00:29:07.620 : :Chapter 07
00:36:20.720 : :Chapter 08
00:42:15.658 : :Chapter 09
00:47:47.114 : :Chapter 10
00:50:10.090 : :Chapter 11
00:54:15.043 : :Chapter 12
01:01:00.740 : :Chapter 13
01:06:31.988 : :Chapter 14
01:15:19.431 : :Chapter 15
01:20:22.275 : :Chapter 16
Джерела та подяки: ріп відео, оригінальні доріжки - NoLimits-Team, українські доріжки - _oles, запис з ТБ (перша частина) - Soyer та MechanicCDRR, xslim, українські постери - bilenkuyboy та vahaul (всі - Гуртом).





ЗАЛИШАЙТЕСЬ ЯКОМОГА ДОВШЕ НА РОЗДАЧІ!

СКАЧАВ САМ - ДАЙ СКАЧАТИ ІНШИМ


Бронзовий реліз (на рейтинг впливає 75% завантаженого)
 Трекер:    Зареєстрований   

Завантажити / скачати фільм українською



відео для новачків



 Зареєстрований:   2013-04-20 22:00
 Розмір:   16.13 GB 
 Оцінка фільму:   5.2/10 (Голосів: 20)
   
Anonymous 







2013-04-20 22:06  
Мені озвучка від ТакТребаПродакшн сподобалась більше, ніж від ICTV у першій частині чи дубляж у другій.
Ваш часовий пояс: GMT + 2 Години

Нова тема   Відповісти