Завантажити та скачати торренти українською


Царство небесне / Kingdom of Heaven (2005) (Theatrical Cut) 1080р Ukr/Eng

Нові коментарі

Нова тема   Відповісти
Автор Повідомлення
pyatachok 
Координатор літератури


З нами з: 30.01.10
Востаннє: 09.12.16
Повідомлень: 1337

2013-04-18 21:00  
Царство небесне / Kingdom of Heaven (2005) (Theatrical Cut) 1080р Ukr/Eng




Жанр: пригодницький, історичний, бойовик, драма
Країна: США, Велика Британія



Кіностудія / кінокомпанія: 20th Century Fox
Режисер: Рідлі Скотт
Актори: Орландо Блум, Едвард Нортон, Єва Грін, Джеремі Айронс, Ліам Нісон, Александр Сіддінг, Мартон Ксокас, Девід Тьюліс

Сюжет:
Події фільму відбуваються в середні віки у часи хрестових походів – період 200-літніх сутичок між Європою і Сходом. Коваль на імя Баліан втратив свою сім'ю та віру. Релігійні війни, що вирують у далекій Святій землі, видаються йому далекими і чужими. Але доля знаходить Баліана у вигляді лицаря хрестоносця Годфрі Д'Ібеліна, який на деякий час повертається додому у Францію, подалі від бойових дій на сході. Він виявляється батьком Баліана. Годфрі показує йому справжнє значення лицарства і бере з собою в подорож по континентах, до легендарного Священного міста. В Єрусалимі в цей час - в період між другим і третім Хрестовими походами - панує хиткий мир, завдяки зусиллям освіченого християнського короля Балдуїна IV, і військовій стриманості легендарного мусульманського лідера Саладіна.Серед пишнот та інтриг середньовічного Єрусалиму Баліан закохується, перетворюється на лідера, і в кінцевому рахунку, використовує всю свою мужність і майстерність, щоб захистити місто від ворогів


Тривалість: 02:24:33
Якість: 1080р
Відео:
кодек:
розмір кадру: 1920x820
бітрейт: 8656 кб/с

Аудіо:
мова: українська
переклад: професійний дубльований
кодек: 2.0
бітрейт: 192 кб/с

Аудіо:
мова: англійська
переклад: оригінал
кодек: 5.1
бітрейт: 640 кб/с

Джерело озвучення:
запис з

Скріншоти
Original vs Encode
log
Код:

[info]: using SAR=1/1
[info]: using cpu capabilities: MMX2 SSE2Fast SSSE3 SSE4.2 AVX
[info]: profile High, level 4.1

[info]: frame I:1766  Avg QP:16.92  size:204457
[info]: frame P:48217 Avg QP:19.24  size: 81269
[info]: frame B:157966 Avg QP:21.46  size: 32319
[info]: consecutive B-frames:  2.2%  2.7%  7.6% 39.3% 13.6% 20.7% 13.9%
[info]: mb I  I16..4: 12.9% 74.7% 12.5%
[info]: mb P  I16..4:  1.0% 20.4%  1.5%  P16..4: 27.4% 33.6%  8.9%  1.1%  0.1%    skip: 6.2%
[info]: mb B  I16..4:  0.1%  1.7%  0.2%  B16..8: 47.3% 20.1%  2.7%  direct: 5.3%  skip:22.6%  L0:45.2% L1:46.3% BI: 8.5%
[info]: 8x8 transform intra:86.9% inter:64.4%
[info]: direct mvs  spatial:98.5% temporal:1.5%
[info]: coded y,uvDC,uvAC intra: 90.5% 80.7% 49.6% inter: 35.3% 28.2% 2.7%
[info]: i16 v,h,dc,p: 26% 11% 17% 46%
[info]: i8 v,h,dc,ddl,ddr,vr,hd,vl,hu:  9%  6% 10% 11% 14% 13% 12% 12% 13%
[info]: i4 v,h,dc,ddl,ddr,vr,hd,vl,hu: 30%  5%  6%  7% 11% 12% 10%  9%  9%
[info]: i8c dc,h,v,p: 38% 25% 19% 17%
[info]: Weighted P-Frames: Y:15.3% UV:9.7%
[info]: ref P L0: 52.8%  6.4% 21.2% 10.7%  7.6%  1.2%  0.1%
[info]: ref B L0: 77.7% 16.2%  4.7%  1.4%
[info]: ref B L1: 92.8%  7.2%
[info]: kb/s:8656.47
MediaInfo

General
Unique ID : 188116655924828795464343821543138687293 (0x8D85F337AE1F069EA31FC204CD08793D)
Complete name : E:\Kingdom of Heaven (2005) [Ukr, Eng] 1080p [Hurtom-pyatachok].mkv
Format : Matroska
Format version : Version 4 / Version 2
File size : 9.58 GiB
Duration : 2h 24mn
Overall bit rate : 9 491 Kbps
Movie name : Kingdom of Heaven (2005) - Release for Hurtom
Encoded date : UTC 2013-04-18 19:47:22
Writing application : mkvmerge v6.1.0 ('Old Devil') built on Mar 2 2013 14:32:37
Writing library : libebml v1.3.0 + libmatroska v1.4.0

Video
ID : 1
Format : AVC
Format/Info : Advanced Video Codec
Format profile : [email protected]
Format settings, CABAC : Yes
Format settings, ReFrames : 5 frames
Codec ID : V_MPEG4/ISO/AVC
Duration : 2h 24mn
Bit rate : 8 657 Kbps
Width : 1 920 pixels
Height : 820 pixels
Display aspect ratio : 2.35:1
Frame rate mode : Constant
Frame rate : 23.976 fps
Color space : YUV
Chroma subsampling : 4:2:0
Bit depth : 8 bits
Scan type : Progressive
Bits/(Pixel*Frame) : 0.229
Stream size : 8.55 GiB (89%)
Writing library : core 130 r2273 b3065e6
Encoding settings : cabac=1 / ref=5 / deblock=1:-3:-3 / analyse=0x3:0x133 / me=umh / subme=11 / psy=1 / psy_rd=1.00:0.15 / mixed_ref=1 / me_range=32 / chroma_me=1 / trellis=2 / 8x8dct=1 / cqm=0 / deadzone=21,11 / fast_pskip=0 / chroma_qp_offset=-3 / threads=12 / lookahead_threads=1 / sliced_threads=0 / nr=0 / decimate=1 / interlaced=0 / bluray_compat=0 / constrained_intra=0 / bframes=6 / b_pyramid=2 / b_adapt=2 / b_bias=0 / direct=3 / weightb=0 / open_gop=0 / weightp=2 / keyint=240 / keyint_min=23 / scenecut=40 / intra_refresh=0 / rc=2pass / mbtree=0 / bitrate=8657 / ratetol=1.0 / qcomp=0.60 / qpmin=0 / qpmax=69 / qpstep=4 / cplxblur=20.0 / qblur=0.5 / ip_ratio=1.40 / pb_ratio=1.30 / aq=1:1.00
Default : Yes
Forced : No

Audio #1
ID : 2
Format : AC-3
Format/Info : Audio Coding 3
Mode extension : CM (complete main)
Format settings, Endianness : Big
Codec ID : A_AC3
Duration : 2h 24mn
Bit rate mode : Constant
Bit rate : 192 Kbps
Channel(s) : 2 channels
Channel positions : Front: L R
Sampling rate : 48.0 KHz
Bit depth : 16 bits
Compression mode : Lossy
Stream size : 199 MiB (2%)
Language : Ukrainian
Default : Yes
Forced : No

Audio #2
ID : 3
Format : AC-3
Format/Info : Audio Coding 3
Mode extension : CM (complete main)
Format settings, Endianness : Big
Codec ID : A_AC3
Duration : 2h 24mn
Bit rate mode : Constant
Bit rate : 640 Kbps
Channel(s) : 6 channels
Channel positions : Front: L C R, Side: L R, LFE
Sampling rate : 48.0 KHz
Bit depth : 16 bits
Compression mode : Lossy
Stream size : 662 MiB (7%)
Language : English
Default : No
Forced : No



Подяка п. xslim за наданий запис з ТБ, та за український постер
За синхронізацію звуку подяка patriot2305


Джерело:
Особиста оцінка: 0 - не дивився


 Трекер:    Зареєстрований   

Завантажити / скачати фільм українською



відео для новачків



 Зареєстрований:   2013-04-18 22:14
 Розмір:   9.58 GB 
 Оцінка фільму:   8.2/10 (Голосів: 5)
   
bot 
робот


З нами з: 30.09.07
Востаннє: 26.05.05
Повідомлень: 16049

2013-04-18 21:00  
Тему перенесено з Фільми в HD до форуму Анонси релізів від Відео Гуртом


pyatachok

bot 
робот


З нами з: 30.09.07
Востаннє: 26.05.05
Повідомлень: 16049

2013-04-18 22:14  
Тему перенесено з Анонси релізів від Відео Гуртом до форуму Фільми в HD

Причина перенесення: початок роздачі
pyatachok

pyatachok 
Координатор літератури


З нами з: 30.01.10
Востаннє: 09.12.16
Повідомлень: 1337

2013-04-18 22:15  
Швидкість роздачі не висока, роздаватиму цілу ніч.
ewgenus 
Поважний учасник


З нами з: 03.03.09
Востаннє: 13.10.16
Повідомлень: 194

2013-04-19 22:33  
Чомусь у цьому фільмі нез'ясовані мотиви війни.
Ваш часовий пояс: GMT + 2 Години

Нова тема   Відповісти