Завантажити та скачати торренти українською


Капела Боднарів - Весілля (1999) [WV] | Folk

Нові коментарі

Нова тема   Відповісти
Останній раз роздавалося bohun (2016-12-06)
Автор Повідомлення
bohun 
VIP


З нами з: 21.03.09
Востаннє: 06.12.16
Повідомлень: 271

2013-04-18 18:46  
Капела Боднарів - Весілля (1999) [WV] | Folk

Капела Боднарів - Весілля (1999) [WV] | Folk


Стиль: Folk
Країна, місто: Україна, Івано-Франківська область, с-ще Яблунів

Виконавці:
    Боднар Михайло (скрипка)
    Боднар Роман (цимбали)
    Струк Михайло (баян)
    Геник Михайло (сопілка)
    Досин Дмитро (бубон)

Пісні:
    1. Гуцулка
    2. Аркан
    3. Весільна пригра, 'Бервінкова'
    4. Весільна танцювальна мелодія
    5. Тиха вода
    6. Вальсова мелодія
    7. Порізала-м пальчик
    8. Весільна мелодія
    9. Голубка
    10. Гуцульський марш
    11. Весільний цикл - ґазди виходять з хати
    12. Верховино, світку ти наш
    13. Їхав, їхав козак містом
    14. Засвіт стали козаченьки, наливаймо браття
    15. Гуцульські награвання на сопілці
    16. Награвання на довгій сопілці
    17. Музична заставка
log
Exact Audio Copy V1.0 beta 3 from 29. August 2011

EAC extraction logfile from 17. April 2012, 10:57

Капела Боднарів / Капела Боднарів

Used drive : TSSTcorpCDDVDW TS-L633F Adapter: 2 ID: 0

Read mode : Secure
Utilize accurate stream : Yes
Defeat audio cache : Yes
Make use of C2 pointers : Yes

Combined read/write offset correction : 0
Overread into Lead-In and Lead-Out : No
Fill up missing offset samples with silence : Yes
Delete leading and trailing silent blocks : No
Null samples used in CRC calculations : Yes
Used interface : Native Win32 interface for Win NT & 2000

Used output format : User Defined Encoder
Selected bitrate : 768 kBit/s
Quality : High
Add ID3 tag : No
Command line compressor : C:\Program Files (x86)\Exact Audio Copy\wavpack-4.60.1\wavpack.exe

TOC of the extracted CD

Track | Start | Length | Start sector | End sector
---------------------------------------------------------
1 | 0:00.00 | 9:40.47 | 0 | 43546
2 | 9:40.47 | 4:52.02 | 43547 | 65448
3 | 14:32.49 | 4:00.72 | 65449 | 83520
4 | 18:33.46 | 2:38.55 | 83521 | 95425
5 | 21:12.26 | 2:32.31 | 95426 | 106856
6 | 23:44.57 | 2:25.06 | 106857 | 117737
7 | 26:09.63 | 3:20.67 | 117738 | 132804
8 | 29:30.55 | 2:41.61 | 132805 | 144940
9 | 32:12.41 | 2:13.51 | 144941 | 154966
10 | 34:26.17 | 1:25.44 | 154967 | 161385
11 | 35:51.61 | 2:16.28 | 161386 | 171613
12 | 38:08.14 | 3:29.03 | 171614 | 187291
13 | 41:37.17 | 1:30.03 | 187292 | 194044
14 | 43:07.20 | 3:04.07 | 194045 | 207851
15 | 46:11.27 | 4:02.34 | 207852 | 226035
16 | 50:13.61 | 2:07.13 | 226036 | 235573
17 | 52:20.74 | 0:22.42 | 235574 | 237265

Range status and errors

Selected range

Filename C:\Users\Микола\Desktop\боднарі\Капела Боднарів - Капела Боднарів.wav

Peak level 98.4 %
Extraction speed 5.9 X
Range quality 100.0 %
Copy CRC 625D6D9F
Copy OK

No errors occurred

End of status report

==== Log checksum 5E00234313ED63D321618E7E73BD7C7EE49463662FED98CB7627FAF5F765A000 ====
fooCDtect
fooCDtect - foobar2000 + auCDtect, baralgin.

auCDtect: CD records authenticity detector, version 0.8.2
Copyright (c) 2004 Oleg Berngardt. All rights reserved.
Copyright (c) 2004 Alexander Djourik. All rights reserved.

mode: 0

===========================================
Track: 01 Гуцулка
Quality: CDDA 100%
===========================================
Track: 02 Аркан
Quality: CDDA 100%
===========================================
Track: 03 Весільна пригра, 'Бервінкова'
Quality: CDDA 100%
===========================================
Track: 04 Весільна танцювальна мелодія
Quality: CDDA 100%
===========================================
Track: 05 Тиха вода
Quality: CDDA 100%
===========================================
Track: 06 Вальсова мелодія
Quality: CDDA 100%
===========================================
Track: 07 Порізала-м пальчик
Quality: CDDA 100%
===========================================
Track: 08 Весільна мелодія
Quality: CDDA 100%
===========================================
Track: 09 Голубка
Quality: CDDA 100%
===========================================
Track: 10 Гуцульський марш
Quality: CDDA 100%
===========================================
Track: 11 Весільний цикл- ґазди виходять з хати
Quality: CDDA 100%
===========================================
Track: 12 Верховино, світку ти наш
Quality: CDDA 100%
===========================================
Track: 13 Їхав, їхав козак містом
Quality: CDDA 100%
===========================================
Track: 14 Засвіт стали козаченьки, наливаймо браття
Quality: CDDA 100%
===========================================
Track: 15 Гуцульські награвання на сопілці
Quality: CDDA 100%
===========================================
Track: 16 Награвання на довгій сопілці
Quality: CDDA 100%
===========================================
Track: 17 Музична заставка
Quality: CDDA 62%
===========================================
Тривалість: 00:52:43
Мова: всі мелодії винятково інструментальні
Аудіо-кодек: WavPack
Бітрейт: 869 кбіт/с
Джерело: Власна колекція
Додаткова інформація:
Весільна капела Боднарів активно супроводжувала весільні обряди в селах Яблунівщини Косівського району, що на Івано-Франківщині, протягом 1980-90х років. Це невидана збірка записів. На фото зображені учасники капели в 1990 році під час одного з весіль. Навіть мимобіжний погляд на трек-лист дає зрозуміти, що "Боднарі" - це не Тафійчуки, проте автентичності їм не бракує. Їх репертуар характерний для передгірської Косівщини чи навіть половини Івано-Франківської області. Можливо в них немає нічого унікального, незвичного, адже вони були типовими весільними музИками, яких є декілька гуртів в кожному селі. Та, незважаючи на це, вони були представниками того, вже практично неіснуючого, покоління музикантів, яке декількаденне весілля відігравало "наживо", на народних фрілках і цимбалах, без єдиного натяку на попсовість чи "несправжність". І тому про них мають знати. Їх повинні чути!


Срібний реліз (на рейтинг впливає 50% завантаженого)
 Трекер:    Зареєстрований   

Завантажити / скачати українську музику



відео для новачків



 Зареєстрований:   2013-04-18 18:46
 Розмір:   329 MB 
 Оцінка музики:   8.2/10 (Голосів: 5)
   
bohun 
VIP


З нами з: 21.03.09
Востаннє: 06.12.16
Повідомлень: 271

2013-04-18 18:54  
Прохання перенести цей реліз у "невидане", я не вмію
ssTAss 
Модератор музики


З нами з: 05.07.08
Востаннє: 06.12.16
Повідомлень: 10946

2013-04-18 23:12  
bohun написано:
Прохання перенести цей реліз у "невидане", я не вмію

в луслес немає невиданого

Ваш часовий пояс: GMT + 2 Години

Нова тема   Відповісти