Завантажити та скачати торренти українською


З мене досить / З мене годі / Падіння / Falling Down (1993) 1080p 3xUkr/Eng | Sub Eng

Нові коментарі

Нова тема   Відповісти
Автор Повідомлення
ratbol 
Модератор HD


З нами з: 03.02.09
Востаннє: 07.12.16
Повідомлень: 1088

2013-04-18 13:24  
З мене досить / З мене годі / Падіння / Falling Down (1993) 1080p 3xUkr/Eng | Sub Eng

З мене досить / З мене годі / Падіння / Falling Down (1993) 1080p 3xUkr/Eng | Sub Eng


Жанр: драма, трилер
Країна: Франція, США, Великобританія



Кіностудія / кінокомпанія: Alcor Films, Canal+, Regency Enterprises
Режисер: Джоель Шумахер
Актори: Майкл Даґлас, Роберт Дювалл, Барбара Герші, Рейчел Тікотін, Т'юздей Велд, Фредерік Форрест, Лоіс Сміт та інші
Рейтинг MPAA: (дітям до 17 років обов'язкова присутність батьків або дорослого опікуна)

Сюжет:
Невдачі переслідують Вільяма все життя. Особливо цього спекотного літа. На роботі його відправили у безстрокову відпустку. Рішенням суду йому заборонено зустрічатися з донькою. Розлютившись на весь світ, Вільям вирішує помститись. Руйнуючи все на своєму шляху, він пробивається крізь спекотне місто на день народження до своєї доньки. Люди сприймають його як маніяка, і лише досвідчений детектив Прендерґаст знає в чому причина агресії Вільяма...


Тривалість: 01:52:36
Якість: 1080p
Відео:
кодек:
розмір кадру: 1904 х 796
бітрейт: 11 Мб/с

Аудіо # 1:
мова: українська
переклад: багатоголосий закадровий | запис з Інтера
кодек: 2.0 (стерео)
бітрейт: 192 кб/с
Про озвучення
Озвучено Так Треба Продакшн на замовлення Інтер
Ролі озвучили: Майкл Даґлас — Юрій Гребельник, Роберт Дювалл — Анатолій Пашнін і два жіночих
Аудіо # 2:
мова: українська
переклад: двоголосий закадровий | запис з Кіно
кодек: 2.0
бітрейт: 192 кб/с
Про озвучення
Аудіо # 3:
мова: українська
переклад: двоголосий закадровий | запис з ICTV
кодек: 2.0
бітрейт: 192 кб/с
Про озвучення
Ролі озвучили: Олександр Завальський
Аудіо # 4:
мова: англійська
переклад: оригінал
кодек: 2.0
бітрейт: 768 кб/с

Аудіо # 5:
мова: англійська
переклад: коментарі Майкла Даґласа та Джоеля Шумахера
кодек: OGG 2.0
бітрейт: 80 кб/с

Субтитри:
мова: англійська
тип: програмні (м'які)
формат: *.srt

Оригінальні розділи:
Збережено

MediaInfo
General
Unique ID : 206327710955087746757219428118244483868 (0x9B39458D611D85689A735CD969A5E31C)
Complete name : F:\Falling Down (1993) [3xUkr, Eng, Com. Sub Eng] 1080p [Hurtom].mkv
Format : Matroska
Format version : Version 4 / Version 2
File size : 9.78 GiB
Duration : 1h 52mn
Overall bit rate mode : Variable
Overall bit rate : 12.4 Mbps
Movie name : Falling Down (1993) [Hurtom]
Encoded date : UTC 2013-04-14 16:17:52
Writing application : mkvmerge v6.1.0 ('Old Devil') built on Mar 2 2013 14:32:37
Writing library : libebml v1.3.0 + libmatroska v1.4.0

Video
ID : 1
Format : AVC
Format/Info : Advanced Video Codec
Format profile : [email protected]
Format settings, CABAC : Yes
Format settings, ReFrames : 4 frames
Codec ID : V_MPEG4/ISO/AVC
Duration : 1h 52mn
Bit rate : 11.0 Mbps
Width : 1 904 pixels
Height : 796 pixels
Display aspect ratio : 2.40:1
Frame rate mode : Constant
Frame rate : 23.976 fps
Color space : YUV
Chroma subsampling : 4:2:0
Bit depth : 8 bits
Scan type : Progressive
Bits/(Pixel*Frame) : 0.303
Stream size : 8.47 GiB (87%)
Title : Ріп від ratbol
Writing library : core 130 r2273 b3065e6
Encoding settings : cabac=1 / ref=4 / deblock=1:-3:-3 / analyse=0x3:0x133 / me=umh / subme=11 / psy=1 / psy_rd=1.00:0.15 / mixed_ref=1 / me_range=32 / chroma_me=1 / trellis=2 / 8x8dct=1 / cqm=0 / deadzone=21,11 / fast_pskip=0 / chroma_qp_offset=-3 / threads=12 / lookahead_threads=1 / sliced_threads=0 / nr=0 / decimate=1 / interlaced=0 / bluray_compat=0 / constrained_intra=0 / bframes=6 / b_pyramid=2 / b_adapt=2 / b_bias=0 / direct=3 / weightb=1 / open_gop=0 / weightp=2 / keyint=240 / keyint_min=23 / scenecut=40 / intra_refresh=0 / rc_lookahead=60 / rc=2pass / mbtree=0 / bitrate=11022 / ratetol=1.0 / qcomp=0.60 / qpmin=0 / qpmax=69 / qpstep=4 / cplxblur=20.0 / qblur=0.5 / vbv_maxrate=62500 / vbv_bufsize=78125 / nal_hrd=none / ip_ratio=1.40 / pb_ratio=1.30 / aq=1:1.00
Language : English
Default : Yes
Forced : No

Audio #1
ID : 2
Format : AC-3
Format/Info : Audio Coding 3
Mode extension : CM (complete main)
Format settings, Endianness : Big
Codec ID : A_AC3
Duration : 1h 52mn
Bit rate mode : Constant
Bit rate : 192 Kbps
Channel(s) : 2 channels
Channel positions : Front: L R
Sampling rate : 48.0 KHz
Bit depth : 16 bits
Compression mode : Lossy
Stream size : 155 MiB (2%)
Title : 2.0 Stereo [192 Kbps] — багатоголосий закадровий | запис з Інтера
Language : Ukrainian
Default : Yes
Forced : No

Audio #2
ID : 3
Format : AC-3
Format/Info : Audio Coding 3
Mode extension : CM (complete main)
Format settings, Endianness : Big
Codec ID : A_AC3
Duration : 1h 52mn
Bit rate mode : Constant
Bit rate : 192 Kbps
Channel(s) : 2 channels
Channel positions : Front: L R
Sampling rate : 48.0 KHz
Bit depth : 16 bits
Compression mode : Lossy
Stream size : 155 MiB (2%)
Title : 2.0 [192 Kbps] — двоголосий закадровий | запис з Кіно
Language : Ukrainian
Default : No
Forced : No

Audio #3
ID : 4
Format : AC-3
Format/Info : Audio Coding 3
Mode extension : CM (complete main)
Format settings, Endianness : Big
Codec ID : A_AC3
Duration : 1h 52mn
Bit rate mode : Constant
Bit rate : 192 Kbps
Channel(s) : 2 channels
Channel positions : Front: L R
Sampling rate : 48.0 KHz
Bit depth : 16 bits
Compression mode : Lossy
Stream size : 155 MiB (2%)
Title : 2.0 [192 Kbps] — двоголосий закадровий | запис з ICTV
Language : Ukrainian
Default : No
Forced : No

Audio #4
ID : 5
Format :
Format/Info : Digital Theater Systems
Mode : 16
Format settings, Endianness : Big
Codec ID : A_DTS
Duration : 1h 52mn
Bit rate mode : Constant
Bit rate : 768 Kbps
Channel(s) : 2 channels
Channel positions : Front: L R
Sampling rate : 48.0 KHz
Bit depth : 16 bits
Compression mode : Lossy
Stream size : 619 MiB (6%)
Title : 2.0 [768 Kbps] — оригінал
Language : English
Default : No
Forced : No

Audio #5
ID : 6
Format : Vorbis
Format settings, Floor : 1
Codec ID : A_VORBIS
Duration : 1h 52mn
Bit rate mode : Variable
Bit rate : 80.0 Kbps
Channel(s) : 2 channels
Sampling rate : 48.0 KHz
Compression mode : Lossy
Stream size : 64.4 MiB (1%)
Title : OGG 2.0 [80 Kbps] — коментарі Майкла Даґласа та Джоеля Шумахера
Writing library : libVorbis 1.2 (UTC 2007-06-22)
Language : English
Default : No
Forced : No

Text
ID : 7
Format : UTF-8
Codec ID : S_TEXT/UTF8
Codec ID/Info : UTF-8 Plain Text
Language : English
Default : No
Forced : No

Menu
00:00:00.000 : :00:00:00.000
00:06:55.832 : :00:06:55.832
00:12:58.486 : :00:12:58.486
00:15:56.539 : :00:15:56.539
00:17:59.787 : :00:17:59.787
00:22:01.862 : :00:22:01.862
00:24:19.875 : :00:24:19.875
00:29:44.866 : :00:29:44.866
00:32:48.091 : :00:32:48.091
00:36:02.494 : :00:36:02.494
00:38:54.541 : :00:38:54.541
00:41:06.547 : :00:41:06.547
00:45:50.122 : :00:45:50.122
00:48:52.847 : :00:48:52.847
00:52:01.160 : :00:52:01.160
00:52:32.066 : :00:52:32.066
00:55:06.470 : :00:55:06.470
00:58:28.547 : :00:58:28.547
01:00:52.440 : :01:00:52.440
01:06:30.320 : :01:06:30.320
01:09:09.228 : :01:09:09.228
01:11:22.195 : :01:11:22.195
01:13:26.277 : :01:13:26.277
01:16:58.823 : :01:16:58.823
01:18:44.261 : :01:18:44.261
01:21:37.017 : :01:21:37.017
01:24:10.504 : :01:24:10.504
01:28:17.501 : :01:28:17.501
01:34:46.431 : :01:34:46.431
01:37:22.295 : :01:37:22.295
01:42:10.708 : :01:42:10.708
01:46:38.559 : :01:46:38.559
01:49:02.536 : :01:49:02.536
log
---[NoImage] [info]: using SAR=1/1
---[NoImage] [info]: using cpu capabilities: MMX2 SSE2Fast SSSE3 SSE4.2 AVX
---[NoImage] [info]: profile High, level 4.1
---[NoImage]
---[NoImage] [info]: frame I:1145 Avg QP:16.11 size:208613
---[NoImage] [info]: frame P:31713 Avg QP:17.71 size: 97806
---[NoImage] [info]: frame B:129132 Avg QP:19.64 size: 46176
---[NoImage] [info]: consecutive B-frames: 1.1% 0.7% 3.1% 15.5% 24.7% 47.0% 7.9%
---[NoImage] [info]: mb I I16..4: 10.7% 79.4% 9.9%
---[NoImage] [info]: mb P I16..4: 1.1% 40.6% 1.4% P16..4: 18.9% 25.7% 8.4% 1.3% 0.1% skip: 2.6%
---[NoImage] [info]: mb B I16..4: 0.1% 4.7% 0.1% B16..8: 35.2% 24.4% 3.8% direct:13.6% skip:18.2% L0:39.3% L1:41.2% BI:19.5%
---[NoImage] [info]: 8x8 transform intra:94.0% inter:53.5%
---[NoImage] [info]: direct mvs spatial:99.5% temporal:0.5%
---[NoImage] [info]: coded y,uvDC,uvAC intra: 97.6% 84.6% 53.6% inter: 47.5% 35.5% 2.0%
---[NoImage] [info]: i16 v,h,dc,p: 14% 8% 17% 60%
---[NoImage] [info]: i8 v,h,dc,ddl,ddr,vr,hd,vl,hu: 10% 9% 14% 9% 11% 11% 11% 12% 14%
---[NoImage] [info]: i4 v,h,dc,ddl,ddr,vr,hd,vl,hu: 11% 9% 6% 9% 14% 14% 13% 11% 12%
---[NoImage] [info]: i8c dc,h,v,p: 37% 31% 19% 13%
---[NoImage] [info]: Weighted P-Frames: Y:2.1% UV:0.5%
---[NoImage] [info]: ref P L0: 55.1% 9.5% 24.2% 10.8% 0.4% 0.0%
---[NoImage] [info]: ref B L0: 88.2% 9.8% 2.1%
---[NoImage] [info]: ref B L1: 93.1% 6.9%
---[NoImage] [info]: kb/s:11015.83
Скріншоти
Source vs Encode






Цитата:
• За фільмографії акторів подяка Віктору та Neo777.
• За доріжку №2 подяка Romario_O.
• Запис сирого звуку для доріжки №1, 3, їх синхронізація, відеоріп — ratbol.
• Через відсутність перекладу у двох місцях у доріжці від ICTV наприкінці є вставка з доріжки від Інтера.


Джерело:


Срібний реліз (на рейтинг впливає 50% завантаженого)
 Трекер:    Зареєстрований   

Завантажити / скачати фільм українською



відео для новачків



 Зареєстрований:   2013-04-18 13:24
 Розмір:   9.78 GB 
 Оцінка фільму:   9.7/10 (Голосів: 9)
   
Ваш часовий пояс: GMT + 2 Години

Нова тема   Відповісти