Завантажити та скачати торренти українською


Чорне золото / Or noir / Day of the Falcon / Black Gold (2011) 1080p Ukr/Eng | Sub Eng

Нові коментарі

Нова тема   Відповісти
Автор Повідомлення
Anonymous 







2013-04-17 19:03  
Чорне золото / Or noir / Day of the Falcon / Black Gold (2011) 1080p Ukr/Eng | Sub Eng



Альтернативні постери







Жанр: драма, історичний, пригодницький, військовий
Країна: Франція, Італія, Катар, Туніс



Кіностудія / кінокомпанія: Carthago Films S.a.r.l., The Doha Film Institute, France 2 Cinéma, Quinta Communications
Режисер: Жан-Жак Анно / Jean-Jacques Annaud
Актори: Антоніо Бандерас / Antonio Banderas, Марк Стронґ / Mark Strong, Тахар Рагім / Tahar Rahim, Фрайда Пінто / Freida Pinto, Різ Агмед / Riz Ahmed, Лія Кебеде / Liya Kebede, Корі Джонсон / Corey Johnson, Ерік Ебуані / Eriq Ebouaney, Акін Ґазі / Akin Gazi, Джан Аддін / Jan Uddin, Лотфі Дзірі / Lotfi Dziri, Адріано Джанніні / Adriano Giannini та інші

Сюжет:
Події картини розгортаються на Аравійському півострові у 30-ті роки XX століття, приблизно у той час, коли там було знайдено нафту. У сюжеті переплелися боротьба за владу, релігія, нафтова лихоманка і, звичайно ж, кохання.


рейтинг MPAA: R - особам до 17 років обов'язкова присутність батьків або дорослого опікуна
Вікова категорія: 16+

Тривалість: 02:10:17
Якість: 1080p
Відео:
кодек:
розмір кадру: 1920x816
бітрейт: 7847 кб/с

Аудіо # 1:
мова: українська
переклад: двоголосий закадровий
ролі озвучили: Євген Пашин та Катерина Буцька
кодек: 2.0
бітрейт: 192 кб/с

Аудіо # 2:
мова: англійська
переклад: оригінал
кодек: 5.1
бітрейт: 448 кб/с

Субтитри:
мова: англійська
тип: програмні (м'які)
формат: *.srt

Збережено оригінальні розділи, як на Blu-ray.
MediaInfo
Код:
General
Unique ID                                : 177941397960729671353783466193465701849 (0x85DE4444587270688079DCE32A50F5D9)
Complete name                            : Black.Gold.2011..1080p.Ukr.Eng.mkv
Format                                   : Matroska
Format version                           : Version 4 / Version 2
File size                                : 7.72 GiB
Duration                                 : 2h 10mn
Overall bit rate                         : 8 478 Kbps
Movie name                               : Чорне золото / Day of the Falcon / Black Gold / Черное золото (2011)
Encoded date                             : UTC 2013-04-17 16:36:00
Writing application                      : mkvmerge v6.1.0 ('Old Devil') built on Mar  2 2013 14:32:37
Writing library                          : libebml v1.3.0 + libmatroska v1.4.0

Video
ID                                       : 1
Format                                   : AVC
Format/Info                              : Advanced Video Codec
Format profile                           : [email protected]
Format settings, CABAC                   : Yes
Format settings, ReFrames                : 5 frames
Codec ID                                 : V_MPEG4/ISO/AVC
Duration                                 : 2h 10mn
Bit rate                                 : 7 847 Kbps
Width                                    : 1 920 pixels
Height                                   : 816 pixels
Display aspect ratio                     : 2.35:1
Frame rate mode                          : Constant
Frame rate                               : 23.976 fps
Color space                              : YUV
Chroma subsampling                       : 4:2:0
Bit depth                                : 8 bits
Scan type                                : Progressive
Bits/(Pixel*Frame)                       : 0.209
Stream size                              : 6.98 GiB (90%)
Title                                    : Чорне золото / Day of the Falcon / Black Gold / Черное золото (2011) rip by delia [FREEISLAND]
Writing library                          : core 125 r2208 d9d2288
Encoding settings                        : cabac=1 / ref=5 / deblock=1:-1:-1 / analyse=0x3:0x113 / me=umh / subme=10 / psy=1 / psy_rd=0.90:0.05 / mixed_ref=1 / me_range=48 / chroma_me=1 / trellis=2 / 8x8dct=1 / cqm=0 / deadzone=21,11 / fast_pskip=0 / chroma_qp_offset=1 / threads=6 / lookahead_threads=1 / sliced_threads=0 / nr=0 / decimate=1 / interlaced=0 / bluray_compat=0 / constrained_intra=0 / bframes=8 / b_pyramid=2 / b_adapt=2 / b_bias=0 / direct=3 / weightb=1 / open_gop=0 / weightp=2 / keyint=240 / keyint_min=23 / scenecut=40 / intra_refresh=0 / rc=2pass / mbtree=0 / bitrate=7847 / ratetol=1.0 / qcomp=0.70 / qpmin=10 / qpmax=51 / qpstep=4 / cplxblur=20.0 / qblur=0.5 / ip_ratio=1.40 / pb_ratio=1.30 / aq=1:0.80
Language                                 : English
Default                                  : Yes
Forced                                   : No

Audio #1
ID                                       : 2
Format                                   : AC-3
Format/Info                              : Audio Coding 3
Mode extension                           : CM (complete main)
Format settings, Endianness              : Big
Codec ID                                 : A_AC3
Duration                                 : 2h 10mn
Bit rate mode                            : Constant
Bit rate                                 : 192 Kbps
Channel(s)                               : 2 channels
Channel positions                        : Front: L R
Sampling rate                            : 48.0 KHz
Bit depth                                : 16 bits
Compression mode                         : Lossy
Stream size                              : 179 MiB (2%)
Title                                    : DVO [Novyj] 2.0 192 kbps [Hurtom-Delight`, ratbol, MAKAPOHHIK]
Language                                 : Ukrainian
Default                                  : Yes
Forced                                   : No

Audio #2
ID                                       : 3
Format                                   : AC-3
Format/Info                              : Audio Coding 3
Mode extension                           : CM (complete main)
Format settings, Endianness              : Big
Codec ID                                 : A_AC3
Duration                                 : 2h 10mn
Bit rate mode                            : Constant
Bit rate                                 : 448 Kbps
Channel(s)                               : 6 channels
Channel positions                        : Front: L C R, Side: L R, LFE
Sampling rate                            : 48.0 KHz
Bit depth                                : 16 bits
Compression mode                         : Lossy
Stream size                              : 417 MiB (5%)
Title                                    : Original
Language                                 : English
Default                                  : No
Forced                                   : No

Text
ID                                       : 4
Format                                   : UTF-8
Codec ID                                 : S_TEXT/UTF8
Codec ID/Info                            : UTF-8 Plain Text
Title                                    : Eng full
Language                                 : English
Default                                  : No
Forced                                   : No

Menu
00:00:00.000                             : en:Chapter 01
00:08:13.618                             : en:Chapter 02
00:17:04.440                             : en:Chapter 03
00:24:54.743                             : en:Chapter 04
00:32:44.504                             : en:Chapter 05
00:40:26.924                             : en:Chapter 06
00:47:58.542                             : en:Chapter 07
00:57:42.125                             : en:Chapter 08
01:07:48.731                             : en:Chapter 09
01:17:07.205                             : en:Chapter 10
01:25:29.124                             : en:Chapter 11
01:32:49.689                             : en:Chapter 12
01:41:57.236                             : en:Chapter 13
01:47:43.540                             : en:Chapter 14
01:58:57.505                             : en:Chapter 15
02:08:23.821                             : en:Chapter 16
02:10:12.262                             : en:Chapter 17








Джерело: ріп відео, оригінальні доріжка та субтитри - delia (FREEISLAND); українська доріжка - Delight` (зведення), ratbol та MAKAPOHHIK (запис з ТБ); Vladdrako17 - постер (всі - Гуртом).

ЗАЛИШАЙТЕСЬ ЯКОМОГА ДОВШЕ НА РОЗДАЧІ!

СКАЧАВ САМ - ДАЙ СКАЧАТИ ІНШИМ


 Трекер:    Зареєстрований   

Завантажити / скачати фільм українською



відео для новачків



 Зареєстрований:   2013-04-17 19:03
 Розмір:   7.72 GB 
 Оцінка фільму:   4.3/10 (Голосів: 18)
   
poolvetrum 
Поважний учасник


З нами з: 01.06.14
Востаннє: 04.12.16
Повідомлень: 205

2016-03-05 00:59  
Фільм не дуже сподобався, місцями відверто нудьгував. Фільм тримав певний інтерес лише з позиції місця подій і, так би мовити, боротьби цивілізаційних виборів сторін, хоча, реалізація і цієї теми далека від ідеалу. 6/10
Ваш часовий пояс: GMT + 2 Години

Нова тема   Відповісти