Завантажити та скачати торренти українською


Alex Holub (Олексій Голуб) - A Tribute to Alex Holub (1997) [APE] | Pop / Folk

Нові коментарі

Нова тема   Відповісти
Автор Повідомлення
civ 
VIP


З нами з: 16.02.11
Востаннє: 04.12.16
Повідомлень: 429

2013-04-17 17:06  
Alex Holub (Олексій Голуб) - A Tribute to Alex Holub (1997) [APE] | Pop / Folk
Alex Holub (Олексій Голуб) - A Tribute to Alex Holub (1997) [APE] | Pop / Folk

Стиль: Pop / Folk
Країна, місто: Канада
Видавець: Melodica Entertainment Productions
Виконавці:
Alex Holub - спів
Christine Harasowska-Shewchuk - бек-вокал
Luba Kozak - бек-вокал
Lubomyra Pankiw - бек-вокал
Ron Cahute - бек-вокал, акордеон, бас, клавішні
David Monis - ударні, перкусія
Michael Monis - гітари
Jerry Hryhorsky - скрипка, віола

Пісні:
    01. Рідний край
    02. Кохана
    03. Два перстені
    04. Вперше
    05. Києве мій
    06. Дивлюсь я на небо
    07. Скрипко грай (Скрипка)
    08. Бачу тебе (Пісня про тебе)
    09. Пісня буде поміж нас
    10. Стожари
    11. Ой висока та гора
    12. Ти
    13. Моя земля, мій краю рідний
    14. Червона рута

Тривалість: 00:49:47
Мова: українська
Аудіо-кодек: APE
Бітрейт: 829 кб/с
Джерело: власний ріп
Тип ріпу: image + cue + обкладинки
EAC Log

Exact Audio Copy V1.0 beta 3 from 29. August 2011

EAC extraction logfile from 16. April 2013, 21:20

Alex Holub / A Tribute to Alex Holub

Used drive : MATSHITADVD-RAM UJ8C1 Adapter: 1 ID: 0

Read mode : Secure
Utilize accurate stream : Yes
Defeat audio cache : Yes
Make use of C2 pointers : No

Read offset correction : 6
Overread into Lead-In and Lead-Out : No
Fill up missing offset samples with silence : Yes
Delete leading and trailing silent blocks : No
Null samples used in CRC calculations : Yes
Used interface : Native Win32 interface for Win NT & 2000

Used output format : Internal WAV Routines
Sample format : 44.100 Hz; 16 Bit; Stereo

TOC of the extracted CD

Track | Start | Length | Start sector | End sector
---------------------------------------------------------
1 | 0:00.00 | 3:19.56 | 0 | 14980
2 | 3:19.56 | 3:39.57 | 14981 | 31462
3 | 6:59.38 | 3:27.08 | 31463 | 46995
4 | 10:26.46 | 3:38.55 | 46996 | 63400
5 | 14:05.26 | 3:57.20 | 63401 | 81195
6 | 18:02.46 | 3:04.45 | 81196 | 95040
7 | 21:07.16 | 3:55.10 | 95041 | 112675
8 | 25:02.26 | 3:52.40 | 112676 | 130115
9 | 28:54.66 | 4:11.50 | 130116 | 148990
10 | 33:06.41 | 3:22.62 | 148991 | 164202
11 | 36:29.28 | 3:21.23 | 164203 | 179300
12 | 39:50.51 | 3:11.25 | 179301 | 193650
13 | 43:02.01 | 3:26.70 | 193651 | 209170
14 | 46:28.71 | 3:17.44 | 209171 | 223989

Range status and errors

Selected range

Filename C:\Music\Alex Holub - A Tribute to Alex Holub (1997)\Alex Holub - A Tribute to Alex Holub.wav

Peak level 100.0 %
Extraction speed 4.3 X
Range quality 100.0 %
Copy CRC 12FB73FB
Copy OK

No errors occurred

AccurateRip summary

Track 1 not present in database
Track 2 not present in database
Track 3 not present in database
Track 4 not present in database
Track 5 not present in database
Track 6 not present in database
Track 7 not present in database
Track 8 not present in database
Track 9 not present in database
Track 10 not present in database
Track 11 not present in database
Track 12 not present in database
Track 13 not present in database
Track 14 not present in database

None of the tracks are present in the AccurateRip database

End of status report
Audiochecker

fooCDtect - foobar2000 + auCDtect, baralgin.

auCDtect: CD records authenticity detector, version 0.8.2
Copyright (c) 2004 Oleg Berngardt. All rights reserved.
Copyright (c) 2004 Alexander Djourik. All rights reserved.

mode: 0

===========================================
Track: 01. Рідний край
Quality: CDDA 100%
===========================================
Track: 02. Кохана
Quality: CDDA 100%
===========================================
Track: 03. Два перстені
Quality: CDDA 100%
===========================================
Track: 04. Вперше
Quality: CDDA 100%
===========================================
Track: 05. Києве мій
Quality: CDDA 100%
===========================================
Track: 06. Дивлюсь я на небо
Quality: CDDA 100%
===========================================
Track: 07. Скрипко грай
Quality: CDDA 100%
===========================================
Track: 08. Бачу тебе (Пісня про тебе)
Quality: CDDA 99%
===========================================
Track: 09. Пісня буде поміж нас
Quality: CDDA 100%
===========================================
Track: 10. Стожари
Quality: CDDA 100%
===========================================
Track: 11. Ой висока та гора
Quality: CDDA 100%
===========================================
Track: 12. Ти
Quality: CDDA 100%
===========================================
Track: 13. Моя земля, мій краю рідний
Quality: CDDA 100%
===========================================
Track: 14. Червона рута
Quality: CDDA 100%
===========================================
Додаткова інформація:




Якщо Ви справді бажаєте підтримати українське - після прослуховування, якщо музика вам сподобалась, придбайте ліцензійний диск. Підтримаймо вітчизняних виконавців!


Срібний реліз (на рейтинг впливає 50% завантаженого)
 Трекер:    Зареєстрований   

Завантажити / скачати українську музику



відео для новачків



 Зареєстрований:   2013-04-17 17:06
 Розмір:   308 MB 
 Оцінка музики:   10/10 (Голосів: 6)
   
Ваш часовий пояс: GMT + 2 Години

Нова тема   Відповісти