Завантажити та скачати торренти українською


Царство небесне / Kingdom of Heaven (2005) (Theatrical Cut) 720р Ukr/Eng

Нові коментарі

Нова тема   Відповісти
Автор Повідомлення
pyatachok 
Координатор літератури


З нами з: 30.01.10
Востаннє: 08.12.16
Повідомлень: 1337

2013-04-17 05:54  
Царство небесне / Kingdom of Heaven (2005) (Theatrical Cut) 720р Ukr/Eng




Жанр: пригодницький, історичний, бойовик, драма
Країна: США, Велика Британія



Кіностудія / кінокомпанія: 20th Century Fox
Режисер: Рідлі Скотт
Актори: Орландо Блум, Едвард Нортон, Єва Грін, Джеремі Айронс, Ліам Нісон, Александр Сіддінг, Мартон Ксокас, Девід Тьюліс

Сюжет:
Події фільму відбуваються в середні віки у часи хрестових походів – період 200-літніх сутичок між Європою і Сходом. Коваль на імя Баліан втратив свою сім'ю та віру. Релігійні війни, що вирують у далекій Святій землі, видаються йому далекими і чужими. Але доля знаходить Баліана у вигляді лицаря хрестоносця Годфрі Д'Ібеліна, який на деякий час повертається додому у Францію, подалі від бойових дій на сході. Він виявляється батьком Баліана. Годфрі показує йому справжнє значення лицарства і бере з собою в подорож по континентах, до легендарного Священного міста. В Єрусалимі в цей час - в період між другим і третім Хрестовими походами - панує хиткий мир, завдяки зусиллям освіченого християнського короля Балдуїна IV, і військовій стриманості легендарного мусульманського лідера Саладіна.Серед пишнот та інтриг середньовічного Єрусалиму Баліан закохується, перетворюється на лідера, і в кінцевому рахунку, використовує всю свою мужність і майстерність, щоб захистити місто від ворогів


Тривалість: 02:24:33
Якість: 720р
Відео:
кодек:
розмір кадру: 1280x546
бітрейт: 3684 кб/с

Аудіо:
мова: українська
переклад: професійний дубльований
кодек: 2.0
бітрейт: 192 кб/с

Аудіо:
мова: англійська
переклад: оригінал
кодек: 5.1
бітрейт: 448 кб/с

Джерело озвучення:
запис з

Скріншоти
Original vs Encode
log
Код:

[info]: using SAR=1/1
[info]: using cpu capabilities: MMX2 SSE2Fast SSSE3 SSE4.2 AVX
[info]: profile High, level 4.1

[info]: frame I:1977  Avg QP:16.44  size:102568
[info]: frame P:47981 Avg QP:18.98  size: 36185
[info]: frame B:157991 Avg QP:21.18  size: 13009
[info]: consecutive B-frames:  2.3%  3.5%  5.9% 39.0% 13.4% 20.7% 15.3%
[info]: mb I  I16..4: 15.8% 65.4% 18.8%
[info]: mb P  I16..4:  0.7% 13.5%  2.0%  P16..4: 28.5% 35.8% 11.8%  1.9%  0.2%    skip: 5.6%
[info]: mb B  I16..4:  0.1%  1.4%  0.3%  B16..8: 42.8% 21.5%  3.4%  direct: 4.9%  skip:25.7%  L0:43.6% L1:46.9% BI: 9.5%
[info]: 8x8 transform intra:79.4% inter:61.5%
[info]: direct mvs  spatial:97.9% temporal:2.1%
[info]: coded y,uvDC,uvAC intra: 88.4% 79.9% 49.3% inter: 30.2% 21.0% 2.1%
[info]: i16 v,h,dc,p: 21%  7% 22% 49%
[info]: i8 v,h,dc,ddl,ddr,vr,hd,vl,hu: 12%  6%  9% 10% 13% 13% 13% 12% 13%
[info]: i4 v,h,dc,ddl,ddr,vr,hd,vl,hu: 31%  5%  5%  7% 11% 12% 10%  9%  9%
[info]: i8c dc,h,v,p: 37% 26% 20% 17%
[info]: Weighted P-Frames: Y:16.2% UV:9.5%
[info]: ref P L0: 47.7%  8.0% 17.1%  8.2%  6.1%  4.6%  3.8%  2.3%  1.8%  0.4%  0.0%
[info]: ref B L0: 70.6% 13.7%  6.6%  3.5%  2.5%  1.9%  1.0%  0.3%
[info]: ref B L1: 92.2%  7.8%
[info]: kb/s:3684.29
MediaInfo
General
Unique ID : 190010292738210251657409459698441638445 (0x8EF2A6B87E0CDCB58DE3BB76E3F7D22D)
Complete name : E:\Kingdom of Heaven (2005) [Ukr, Eng] 720p [Hurtom-pyatachok].mkv
Format : Matroska
Format version : Version 4 / Version 2
File size : 4.37 GiB
Duration : 2h 24mn
Overall bit rate : 4 326 Kbps
Movie name : Kingdom of Heaven (2005) - Release for Hurtom
Encoded date : UTC 2013-04-18 11:00:50
Writing application : mkvmerge v6.1.0 ('Old Devil') built on Mar 2 2013 14:32:37
Writing library : libebml v1.3.0 + libmatroska v1.4.0

Video
ID : 1
Format : AVC
Format/Info : Advanced Video Codec
Format profile : [email protected]
Format settings, CABAC : Yes
Format settings, ReFrames : 9 frames
Codec ID : V_MPEG4/ISO/AVC
Duration : 2h 24mn
Bit rate : 3 685 Kbps
Width : 1 280 pixels
Height : 546 pixels
Display aspect ratio : 2.35:1
Frame rate mode : Constant
Frame rate : 23.976 fps
Color space : YUV
Chroma subsampling : 4:2:0
Bit depth : 8 bits
Scan type : Progressive
Bits/(Pixel*Frame) : 0.220
Stream size : 3.64 GiB (83%)
Writing library : core 130 r2273 b3065e6
Encoding settings : cabac=1 / ref=9 / deblock=1:-3:-3 / analyse=0x3:0x133 / me=umh / subme=11 / psy=1 / psy_rd=1.00:0.15 / mixed_ref=1 / me_range=32 / chroma_me=1 / trellis=2 / 8x8dct=1 / cqm=0 / deadzone=21,11 / fast_pskip=0 / chroma_qp_offset=-3 / threads=12 / lookahead_threads=1 / sliced_threads=0 / nr=0 / decimate=1 / interlaced=0 / bluray_compat=0 / constrained_intra=0 / bframes=6 / b_pyramid=2 / b_adapt=2 / b_bias=0 / direct=3 / weightb=0 / open_gop=0 / weightp=2 / keyint=240 / keyint_min=23 / scenecut=40 / intra_refresh=0 / rc=2pass / mbtree=0 / bitrate=3685 / ratetol=1.0 / qcomp=0.60 / qpmin=0 / qpmax=69 / qpstep=4 / cplxblur=20.0 / qblur=0.5 / ip_ratio=1.40 / pb_ratio=1.30 / aq=1:1.00
Default : Yes
Forced : No

Audio #1
ID : 2
Format : AC-3
Format/Info : Audio Coding 3
Mode extension : CM (complete main)
Format settings, Endianness : Big
Codec ID : A_AC3
Duration : 2h 24mn
Bit rate mode : Constant
Bit rate : 192 Kbps
Channel(s) : 2 channels
Channel positions : Front: L R
Sampling rate : 48.0 KHz
Bit depth : 16 bits
Compression mode : Lossy
Stream size : 199 MiB (4%)
Language : Ukrainian
Default : Yes
Forced : No

Audio #2
ID : 3
Format : AC-3
Format/Info : Audio Coding 3
Mode extension : CM (complete main)
Format settings, Endianness : Big
Codec ID : A_AC3
Duration : 2h 24mn
Bit rate mode : Constant
Bit rate : 448 Kbps
Channel(s) : 6 channels
Channel positions : Front: L C R, Side: L R, LFE
Sampling rate : 48.0 KHz
Bit depth : 16 bits
Compression mode : Lossy
Stream size : 463 MiB (10%)
Language : English
Default : No
Forced : No



Подяка п. xslim за наданий запис з ТБ, та за український постер
За синхронізацію звуку подяка patriot2305


Джерело:
Особиста оцінка: 0 - не дивився


 Трекер:    Зареєстрований   

Завантажити / скачати фільм українською



відео для новачків



 Зареєстрований:   2013-04-18 13:31
 Розмір:   4.37 GB 
 Оцінка фільму:   9.9/10 (Голосів: 22)
   
bot 
робот


З нами з: 30.09.07
Востаннє: 26.05.05
Повідомлень: 16030

2013-04-17 05:54  
Тему перенесено з Фільми в HD до форуму Анонси релізів від Відео Гуртом


pyatachok

oleg.plavkov 
Відео Гуртом - фільмокрай
Відео Гуртом - фільмокрай


З нами з: 04.01.12
Востаннє: 08.12.16
Повідомлень: 304

2013-04-18 06:49  
Коли реліз?
pyatachok 
Координатор літератури


З нами з: 30.01.10
Востаннє: 08.12.16
Повідомлень: 1337

2013-04-18 07:09  
oleg.plavkov
720p сьогодні після обіду, і ще буде 1080р, але завтра.

bot 
робот


З нами з: 30.09.07
Востаннє: 26.05.05
Повідомлень: 16030

2013-04-18 13:30  
Тему перенесено з Анонси релізів від Відео Гуртом до форуму Фільми в HD

Причина перенесення: початок роздачі
pyatachok

Ваш часовий пояс: GMT + 2 Години

Нова тема   Відповісти