Завантажити та скачати торренти українською


До Дива / To the Wonder (2012)  720p Eng, Fre | Sub Ukr/Eng

Нові коментарі

Нова тема   Відповісти
Останній раз роздавалося marianate (2016-11-10)
Автор Повідомлення
antusyrzhuk 
Свій


З нами з: 09.06.09
Востаннє: 19.11.16
Повідомлень: 145

2013-04-16 11:10  
До дива / To the Wonder (2012)  720p Eng, Fre | Sub Ukr/Eng

До Дива / To the Wonder (2012)  720p Eng, Fre | Sub Ukr/Eng


Жанр: романтичний, драма
Країна: США



Кіностудія / кінокомпанія: Redbud Pictures
Режисер: Теренс Мелік (Terrence Malick)
Актори: Бен Аффлек (Ben Affleck), Ольга Куриленко (Olga Kurylenko), Рейчел МакАдамс (Rachel McAdams), Хав'єр Бардем (Javier Bardem), Роміна Монделло (Romina Mondello) та ін.

Сюжет:
Ніл - американець, що подорожує Європою, де він зустрічається з Мариною, розлученою українкою, яка має 10-річну доньку Тетяну. Ніл закохується в Марину, запрошує її переїхати в рідну Оклахому. Усе складається якнайкраще, проте...


Тривалість: 01:52:31
Якість:
Відео:
кодек:
розмір кадру: 1280 х 540
бітрейт: 3924 кб/с

Аудіо:
мова: англійська, французька, іспанська, італійська
переклад: оригінал
кодек: 5.1
бітрейт: 384 кб/с

Субтитри:
мова: українська
тип: програмні (м'які)
формат: *.srt
переклад з оригіналу: antusyrzhuk
редагування: Sjanyk San

Субтитри:
мова: англійська (повні, для людей із вадами слуху)
тип: програмні (м'які)
формат: *.srt

Субтитри:
мова: англійська (часткові, на французьку і іспанську)
тип: вбудовані (жорсткі)
MediaInfo
To the Wonder (2012).mkv
Format : Matroska
Format version : Version 4 / Version 2
File size : 3.45 GiB
Duration : 1h 52mn
Overall bit rate : 4 396 Kbps
Movie name : To the Wonder*2012 /antusyrzhuk
Encoded date : UTC 2013-04-16 07:55:57
Writing application : mkvmerge v6.1.0 ('Old Devil') built on Mar 2 2013 14:32:37
Writing library : libebml v1.3.0 + libmatroska v1.4.0

Video
ID : 1
Format : AVC
Format/Info : Advanced Video Codec
Format profile : [email protected]
Format settings, CABAC : No
Format settings, ReFrames : 2 frames
Codec ID : V_MPEG4/ISO/AVC
Duration : 1h 52mn
Bit rate : 3 924 Kbps
Width : 1 280 pixels
Height : 540 pixels
Display aspect ratio : 2.40:1
Frame rate mode : Constant
Frame rate : 23.976 fps
Color space : YUV
Chroma subsampling : 4:2:0
Bit depth : 8 bits
Scan type : Progressive
Bits/(Pixel*Frame) : 0.237
Stream size : 3.08 GiB (89%)
Language : English
Default : Yes
Forced : No
Color primaries : BT.709
Transfer characteristics : BT.709
Matrix coefficients : BT.709

Audio
ID : 2
Format : AC-3
Format/Info : Audio Coding 3
Mode extension : CM (complete main)
Format settings, Endianness : Big
Codec ID : A_AC3
Duration : 1h 52mn
Bit rate mode : Constant
Bit rate : 384 Kbps
Channel(s) : 6 channels
Channel positions : Front: L C R, Side: L R, LFE
Sampling rate : 48.0 KHz
Bit depth : 16 bits
Compression mode : Lossy
Stream size : 309 MiB (9%)
Language : English
Default : Yes
Forced : No

Text #1
ID : 3
Format : UTF-8
Codec ID : S_TEXT/UTF8
Codec ID/Info : UTF-8 Plain Text
Language : Ukrainian
Default : Yes
Forced : No

Text #2
ID : 4
Format : UTF-8
Codec ID : S_TEXT/UTF8
Codec ID/Info : UTF-8 Plain Text
Title : CC
Language : English
Default : No
Forced : No

Menu
Скріншоти







Джерело: ПаблікХД
Особиста оцінка: 9 - кіно


Золотий реліз (завантажене не впливає на рейтинг)
 Трекер:    Зареєстрований   

Завантажити / скачати фільм українською



відео для новачків



 Зареєстрований:   2013-04-16 11:10
 Розмір:   3.45 GB 
 Оцінка фільму:   10/10 (Голосів: 7)
   
Інші релізи
   До дива / To the Wonder (2012) Ukr/Eng | Sub Ukr/Eng karvai0  5 / 0   2.18 GB   2014-05-26 00:01 
ratbol 
Модератор HD


З нами з: 03.02.09
Востаннє: 10.12.16
Повідомлень: 1088

2013-04-16 22:11  
antusyrzhuk написано:
охолоняють

reminn 
Новенький


З нами з: 17.10.11
Востаннє: 10.12.16
Повідомлень: 4

2013-04-16 22:40  
Дуже дякую. А не плануються субтитри на Welcome to the Punch або Broken City?
siangok 
Свій


З нами з: 07.08.12
Востаннє: 10.12.16
Повідомлень: 53

2013-04-17 07:35  
Цитата:
стосунки охолоняють
Краще блякнуть, в крайньому разі холонуть.
ratbol 
Модератор HD


З нами з: 03.02.09
Востаннє: 10.12.16
Повідомлень: 1088

2013-04-17 23:00  
antusyrzhuk написано:
До дива / To the Wonder (2012) Eng, Fre | Sub Ukr/Eng


reminn 
Новенький


З нами з: 17.10.11
Востаннє: 10.12.16
Повідомлень: 4

2013-04-20 00:49  
А можете викласти субтитри окремим файлом?
karvai0 
Відео Гуртом - запис з ТБ
Відео Гуртом - запис з ТБ


З нами з: 18.01.10
Востаннє: 09.09.16
Повідомлень: 3686

2014-04-16 14:33  
допишіть 720p
Ваш часовий пояс: GMT + 2 Години

Нова тема   Відповісти