Завантажити та скачати торренти українською


VA - Млин (Всеукраїнська музична збірка) (2012) [WV] | Folk Rock

Нові коментарі

Нова тема   Відповісти
Автор Повідомлення
ssTAss 
Модератор музики


З нами з: 05.07.08
Востаннє: 05.12.16
Повідомлень: 10939

2013-04-16 01:40  
VA - Млин (Всеукраїнська музична збірка) (2012) [WV] | Folk Rock

VA - Млин (Всеукраїнська музична збірка) (2012) [WV] | Folk Rock


Стиль: Folk Rock
Країна, місто: Україна
Сайти: Офіційний сайт
Видавець: Наш Формат, МА
Виконавці:
вказані до кожної пісні
Пісні:
    1. Вій - Відрізана голова
    2. ДримбаДаДзига - Барабаш
    3. Коzak System - Шабля
    4. Postsens - Що ж то, мамо, за дерево
    5. ТаРута - Бором Бором
    6. Фолькнери - Випливало утеня
    7. Чумацький шлях - Козацька битва
    8. Zapaska - Прорізна
    9. PoliКарп - Гуцулка
    10. SЮR BАND - Дикі гуси
    11. Ot Vinta - Їхав козак
    12. Stelsi - Кредит
    13. Самі Свої - Купальський попіл
    14. КОМУ ВНИЗ - Білі демони
    15. Оркестр Янки Козир - Трави нема
    16. Перкалаба - Тікобивиходили
log
Exact Audio Copy V1.0 beta 3 from 29. August 2011

EAC extraction logfile from 26. March 2013, 22:53

Various / Млин

Used drive : SAMSUNG CD-ROM SC-152C Adapter: 0 ID: 0

Read mode : Secure
Utilize accurate stream : Yes
Defeat audio cache : Yes
Make use of C2 pointers : No

Read offset correction : 600
Overread into Lead-In and Lead-Out : No
Fill up missing offset samples with silence : Yes
Delete leading and trailing silent blocks : No
Null samples used in CRC calculations : Yes
Used interface : Native Win32 interface for Win NT & 2000

Used output format : User Defined Encoder
Selected bitrate : 1024 kBit/s
Quality : High
Add ID3 tag : No
Command line compressor : C:\Blade\Programs\wavpack-4.60.1\wavpack.exe
Additional command line options : -hlmx2 %source% %dest%

TOC of the extracted CD

Track | Start | Length | Start sector | End sector
---------------------------------------------------------
1 | 0:00.00 | 3:38.00 | 0 | 16349
2 | 3:38.00 | 2:54.00 | 16350 | 29399
3 | 6:32.00 | 3:16.74 | 29400 | 44173
4 | 9:48.74 | 3:32.00 | 44174 | 60073
5 | 13:20.74 | 3:11.74 | 60074 | 74472
6 | 16:32.73 | 4:34.00 | 74473 | 95022
7 | 21:06.73 | 2:46.00 | 95023 | 107472
8 | 23:52.73 | 3:06.00 | 107473 | 121422
9 | 26:58.73 | 4:46.00 | 121423 | 142872
10 | 31:44.73 | 4:35.74 | 142873 | 163571
11 | 36:20.72 | 2:40.00 | 163572 | 175571
12 | 39:00.72 | 4:07.74 | 175572 | 194170
13 | 43:08.71 | 4:44.00 | 194171 | 215470
14 | 47:52.71 | 5:40.00 | 215471 | 240970
15 | 53:32.71 | 4:00.00 | 240971 | 258970
16 | 57:32.71 | 4:34.00 | 258971 | 279520

Range status and errors

Selected range

Filename C:\Blade\music\work\VA - 2012 - Mlyn (Nash format).wav

Peak level 98.2 %
Extraction speed 1.4 X
Range quality 99.9 %
Test CRC AB9E4435
Copy CRC AB9E4435
Copy OK

No errors occurred

AccurateRip summary

Track 1 not present in database
Track 2 not present in database
Track 3 not present in database
Track 4 not present in database
Track 5 not present in database
Track 6 not present in database
Track 7 not present in database
Track 8 not present in database
Track 9 not present in database
Track 10 not present in database
Track 11 not present in database
Track 12 not present in database
Track 13 not present in database
Track 14 not present in database
Track 15 not present in database
Track 16 not present in database

None of the tracks are present in the AccurateRip database

End of status report

---- CUETools DB Plugin V2.1.3

[CTDB TOCID: vwDheqnZ8zIfyiYtghyAXpQto0o-] found, Submit result: vwDheqnZ8zIfyiYtghyAXpQto0o- has been confirmed
[61c73693] (1/1) Accurately ripped

==== Log checksum 38E05E7F89AEEDAEC9621EB347765E7F9C64AC0ABEEB2686BF9CCEBC47EF8268 ====
fooCDtect
fooCDtect - foobar2000 + auCDtect, baralgin.

auCDtect: CD records authenticity detector, version 0.8.2
Copyright (c) 2004 Oleg Berngardt. All rights reserved.
Copyright (c) 2004 Alexander Djourik. All rights reserved.

mode: 0

===========================================
Track: 01 - Відрізана голова
Quality: CDDA 99%
===========================================
Track: 02 - Барабаш
Quality: CDDA 100%
===========================================
Track: 03 - Шабля
Quality: CDDA 100%
===========================================
Track: 04 - Що ж то, мамо, за дерево
Quality: CDDA 100%
===========================================
Track: 05 - Бором Бором
Quality: CDDA 100%
===========================================
Track: 06 - Випливало утеня
Quality: CDDA 100%
===========================================
Track: 07 - Козацька битва
Quality: MPEG 100%
===========================================
Track: 08 - Прорізна
Quality: CDDA 99%
===========================================
Track: 09 - Гуцулка
Quality: CDDA 99%
===========================================
Track: 10 - Дикі гуси
Quality: MPEG 100%
===========================================
Track: 11 - Їхав козак
Quality: CDDA 100%
===========================================
Track: 12 - Кредит
Quality: CDDA 100%
===========================================
Track: 13 - Купальський попіл
Quality: CDDA 100%
===========================================
Track: 14 - Білі демони
Quality: CDDA 100%
===========================================
Track: 15 - Трави нема
Quality: CDDA 85%
===========================================
Track: 16 - Тікобивиходили
Quality: CDDA 100%
===========================================
Тривалість: 01:02:07
Мова: українська, відсутня (7)
Аудіо-кодек: WavPack
Бітрейт: 985 кб/с
Джерело: нетлаб
Додаткова інформація:
Найяскравіших представників української world music відтепер можна знайти на одній збірці. Всеукраїнське музичне кружальце "Млин" зібрало гурти Вій, Кому Вниз, Перкалаба, Postsense, Фолькнери, Тарута, Polikaрп та інших. «Млин» вийшов у мистецькій агенції «Наш Формат».
Хіти зібрані у цьому альбомі ви могли чути на різноманітних концертах та фестивалях, тому ця збірка є модним і актуальним подарунком. Якісна платівка, яка неодмінно прийдеться Вам по душі, а також стане прикрасою будь-якого свята, надавши неповторної національної атмосфери, а Ви отримаєте безліч позитиву та гарного настрою.


Якщо Ви справді бажаєте підтримати українське - після прослуховування, якщо музика вам сподобалась,
придбайте ліцензійний диск.
Підтримаймо вітчизняних виконавців!


Срібний реліз (на рейтинг впливає 50% завантаженого)
 Трекер:    Зареєстрований   

Завантажити / скачати українську музику



відео для новачків



 Зареєстрований:   2013-04-16 01:40
 Розмір:   485 MB 
 Оцінка музики:   7.4/10 (Голосів: 14)
   
kolpavel 
VIP


З нами з: 04.05.14
Востаннє: 05.12.16
Повідомлень: 1059

2015-07-31 15:00  
Ваш часовий пояс: GMT + 2 Години

Нова тема   Відповісти