Завантажити та скачати торренти українською


Триста8ісім - Перча [EP] (2013) [WV] | Folk-Rock

Нові коментарі

Нова тема   Відповісти
Останній раз роздавалося ssTAss (2016-11-27)
Автор Повідомлення
ssTAss 
Модератор музики


З нами з: 05.07.08
Востаннє: 05.12.16
Повідомлень: 10941

2013-04-16 00:52  
Триста8ісім - Перча [EP] (2013) [WV] | Folk-Rock

Триста8ісім - Перча [EP] (2013) [WV] | Folk-Rock


Стиль: Ska, Folk Rock
Країна, місто: Україна, Ужгород
Сайти: Офіційний сайт
Видавець: Наш Формат, МА
Виконавці:
Павло Генов — вокал, гітара;
Ігор Магада — ударні;
Андрій Шаповалов — бас-гітара;
Володимир Щобак — труба, бек вокал;
Станіслав Микульця — акордеон
Пісні:
    1. Варош банда
    2. Дислокація
    3. Заробітчано
    4. Будь там
    5. Наша файта
log
Exact Audio Copy V1.0 beta 3 from 29. August 2011

EAC extraction logfile from 6. April 2013, 10:19

Триста8ісім / Перча [EP]

Used drive : SAMSUNG CD-ROM SC-152C Adapter: 0 ID: 0

Read mode : Secure
Utilize accurate stream : Yes
Defeat audio cache : Yes
Make use of C2 pointers : No

Read offset correction : 600
Overread into Lead-In and Lead-Out : No
Fill up missing offset samples with silence : Yes
Delete leading and trailing silent blocks : No
Null samples used in CRC calculations : Yes
Used interface : Native Win32 interface for Win NT & 2000

Used output format : User Defined Encoder
Selected bitrate : 1024 kBit/s
Quality : High
Add ID3 tag : No
Command line compressor : C:\Blade\Programs\wavpack-4.60.1\wavpack.exe
Additional command line options : -hlmx2 %source% %dest%

TOC of the extracted CD

Track | Start | Length | Start sector | End sector
---------------------------------------------------------
1 | 0:00.00 | 4:38.38 | 0 | 20887
2 | 4:38.38 | 4:31.34 | 20888 | 41246
3 | 9:09.72 | 5:08.50 | 41247 | 64396
4 | 14:18.47 | 3:13.58 | 64397 | 78929
5 | 17:32.30 | 5:32.05 | 78930 | 103834

Range status and errors

Selected range

Filename C:\Blade\music\work\Trysta8isim - Percha [EP].wav

Peak level 100.0 %
Extraction speed 1.6 X
Range quality 99.8 %
Test CRC 3B3995CE
Copy CRC 3B3995CE
Copy OK

No errors occurred

AccurateRip summary

Track 1 not present in database
Track 2 not present in database
Track 3 not present in database
Track 4 not present in database
Track 5 not present in database

None of the tracks are present in the AccurateRip database

End of status report

---- CUETools DB Plugin V2.1.3

[CTDB TOCID: vqXBlH4q_I6uJ_wFReUvmY8Ngkk-] disk not present in database, Submit result: database access error: The request was aborted: The request was canceled.

==== Log checksum FCAEA1AB1DF4AF9060F4CB0F5F7606208A041DABA55C459407C3E0E8F7420FD9 ====
fooCDtect
fooCDtect - foobar2000 + auCDtect, baralgin.

auCDtect: CD records authenticity detector, version 0.8.2
Copyright (c) 2004 Oleg Berngardt. All rights reserved.
Copyright (c) 2004 Alexander Djourik. All rights reserved.

mode: 0

===========================================
Track: 01 - Варош банда
Quality: CDDA 100%
===========================================
Track: 02 - Дислокація
Quality: CDDA 100%
===========================================
Track: 03 - Заробітчано
Quality: CDDA 100%
===========================================
Track: 04 - Будь там
Quality: CDDA 100%
===========================================
Track: 05 - Наша файта
Quality: CDDA 100%
===========================================
Тривалість: 00:23:04
Мова: українська
Аудіо-кодек: WavPack
Бітрейт: 1032 кб/с
Джерело: нетлаб
Додаткова інформація:
Гурт "Триста8ісім" — це музичне відображення культурної круговерті, яка утворюється на перетині фольклору народів Закарпаття, карпато-балканських мотивів та ексцентричної суміші цілої низки сучасних стилів музики, серед яких фолк-рок, панк, фанк, ска, рок-н-ролл. В своїх невтримних мелодіях вони поєднують угорські чардаші та палкі циганські мотиви, румунське розмаїття та гуцульську безпосередність. Ця закарпатська ватага, озброївшись потужним звуком, змушує ноги слухачів кидатись в танець.


Якщо Ви справді бажаєте підтримати українське - після прослуховування, якщо музика вам сподобалась,
придбайте ліцензійний диск.
Підтримаймо вітчизняних виконавців!


Срібний реліз (на рейтинг впливає 50% завантаженого)
 Трекер:    Зареєстрований   

Завантажити / скачати українську музику



відео для новачків



 Зареєстрований:   2013-04-16 00:52
 Розмір:   217 MB 
 Оцінка музики:   7.9/10 (Голосів: 13)
   
ssTAss 
Модератор музики


З нами з: 05.07.08
Востаннє: 05.12.16
Повідомлень: 10941

2013-04-16 00:53  
Ваш часовий пояс: GMT + 2 Години

Нова тема   Відповісти