Завантажити та скачати торренти українською


Сонцекльош - Герої (2011) [WV] | Neofolk / Folk Rock

Нові коментарі

Нова тема   Відповісти
Автор Повідомлення
ssTAss 
Модератор музики


З нами з: 05.07.08
Востаннє: 10.12.16
Повідомлень: 10950

2013-04-14 14:21  
Сонцекльош - Герої (2011) [WV] | Neofolk / Folk Rock

Сонцекльош - Герої (2011) [WV] | Neofolk / Folk Rock


Стиль: Folk Rock
Країна, місто: Україна, Київ
Видавець: Наш Формат, МА
Виконавці:
Олена Грозовська - вокал
Марія Кудрявцева - вокал
Костянтин Бушинський - ударні, гітара
Кирило Мачинський - бас
Наталя Касянчик - домра
Андрій Войтюк - перкусія
Євген Дідик - труба
Євген Ющенко - труба
Сергій Бабуч - вокал (трек 9)
Пісні:
    1. Празднік
    2. Серденя
    3. Попатря
    4. Ой спала я на сєнє
    5. Прощай, сєрдєчноє страдання
    6. Базар
    7. Старик
    8. Фраїрочка
    9. Герої
    10. Ламбада
    11. Дала-с мене
    12. Ішов козак потайком
log
Exact Audio Copy V1.0 beta 2 from 29. April 2011

EAC extraction logfile from 27. August 2011, 13:41

Сонцекльош / Герої

Used drive : SONY DVD RW DRU-840A Adapter: 0 ID: 0

Read mode : Secure
Utilize accurate stream : Yes
Defeat audio cache : Yes
Make use of C2 pointers : No

Read offset correction : 6
Overread into Lead-In and Lead-Out : No
Fill up missing offset samples with silence : Yes
Delete leading and trailing silent blocks : No
Null samples used in CRC calculations : Yes
Used interface : Native Win32 interface for Win NT & 2000

Used output format : User Defined Encoder
Selected bitrate : 128 kBit/s
Quality : High
Add ID3 tag : Yes
Command line compressor : C:\Program Files\Exact Audio Copy\Wavpack\wavpack.exe
Additional command line options : -hlm %source%

TOC of the extracted CD

Track | Start | Length | Start sector | End sector
---------------------------------------------------------
1 | 0:00.00 | 2:25.26 | 0 | 10900
2 | 2:25.26 | 2:30.49 | 10901 | 22199
3 | 4:56.00 | 3:06.03 | 22200 | 36152
4 | 8:02.03 | 2:20.46 | 36153 | 46698
5 | 10:22.49 | 3:26.39 | 46699 | 62187
6 | 13:49.13 | 3:00.14 | 62188 | 75701
7 | 16:49.27 | 3:11.21 | 75702 | 90047
8 | 20:00.48 | 3:52.01 | 90048 | 107448
9 | 23:52.49 | 2:52.53 | 107449 | 120401
10 | 26:45.27 | 3:27.23 | 120402 | 135949
11 | 30:12.50 | 2:26.11 | 135950 | 146910
12 | 32:38.61 | 2:37.74 | 146911 | 158759

Range status and errors

Selected range

Filename F:\_lossless\Сонцекльош - Герої.wav

Peak level 100.0 %
Extraction speed 2.6 X
Range quality 100.0 %
Copy CRC 011B1FA2
Copy OK

No errors occurred

AccurateRip summary

Track 1 not present in database
Track 2 not present in database
Track 3 not present in database
Track 4 not present in database
Track 5 not present in database
Track 6 not present in database
Track 7 not present in database
Track 8 not present in database
Track 9 not present in database
Track 10 not present in database
Track 11 not present in database
Track 12 not present in database

None of the tracks are present in the AccurateRip database

End of status report

==== Log checksum 9DAA5473C2D410204A1A770FD2C2BD157A99A599707E23DC264E9897F1B52DD3 ====

------------------------------------------------------------

Exact Audio Copy V1.0 beta 2 from 29. April 2011

EAC extraction logfile from 28. August 2011, 10:33

Сонцекльош / Герої

Used drive : SONY DVD RW DRU-840A Adapter: 0 ID: 0

Read mode : Secure
Utilize accurate stream : Yes
Defeat audio cache : Yes
Make use of C2 pointers : No

Read offset correction : 6
Overread into Lead-In and Lead-Out : No
Fill up missing offset samples with silence : Yes
Delete leading and trailing silent blocks : No
Null samples used in CRC calculations : Yes
Used interface : Native Win32 interface for Win NT & 2000

Used output format : User Defined Encoder
Selected bitrate : 128 kBit/s
Quality : High
Add ID3 tag : Yes
Command line compressor : C:\Program Files\Exact Audio Copy\Wavpack\wavpack.exe
Additional command line options : -hlm %source%

TOC of the extracted CD

Track | Start | Length | Start sector | End sector
---------------------------------------------------------
1 | 0:00.00 | 2:25.26 | 0 | 10900
2 | 2:25.26 | 2:30.49 | 10901 | 22199
3 | 4:56.00 | 3:06.03 | 22200 | 36152
4 | 8:02.03 | 2:20.46 | 36153 | 46698
5 | 10:22.49 | 3:26.39 | 46699 | 62187
6 | 13:49.13 | 3:00.14 | 62188 | 75701
7 | 16:49.27 | 3:11.21 | 75702 | 90047
8 | 20:00.48 | 3:52.01 | 90048 | 107448
9 | 23:52.49 | 2:52.53 | 107449 | 120401
10 | 26:45.27 | 3:27.23 | 120402 | 135949
11 | 30:12.50 | 2:26.11 | 135950 | 146910
12 | 32:38.61 | 2:37.74 | 146911 | 158759

Range status and errors

Selected range

Filename F:\_lossless\Сонцекльош - Герої.wav

Peak level 100.0 %
Extraction speed 2.6 X
Range quality 100.0 %
Copy CRC 011B1FA2
Copy OK

No errors occurred

AccurateRip summary

Track 1 not present in database
Track 2 not present in database
Track 3 not present in database
Track 4 not present in database
Track 5 not present in database
Track 6 not present in database
Track 7 not present in database
Track 8 not present in database
Track 9 not present in database
Track 10 not present in database
Track 11 not present in database
Track 12 not present in database

None of the tracks are present in the AccurateRip database

End of status report

==== Log checksum 37798E64B32A955A81A5EC7DC94B6B09C21DCF84EDC69D234331AD1C12D55A95 ====
fooCDtect
fooCDtect - foobar2000 + auCDtect, baralgin.

auCDtect: CD records authenticity detector, version 0.8.2
Copyright (c) 2004 Oleg Berngardt. All rights reserved.
Copyright (c) 2004 Alexander Djourik. All rights reserved.

mode: 0

===========================================
Track: 01 - Празднік
Quality: MPEG 95%
===========================================
Track: 02 - Серденя
Quality: MPEG 95%
===========================================
Track: 03 - Попатря
Quality: MPEG 95%
===========================================
Track: 04 - Ой Спала Я На Сєнє
Quality: MPEG 95%
===========================================
Track: 05 - Прощай, Сєрдєчноє Страдання
Quality: MPEG 95%
===========================================
Track: 06 - Базар
Quality: MPEG 95%
===========================================
Track: 07 - Старик
Quality: MPEG 95%
===========================================
Track: 08 - Фраїрочка
Quality: MPEG 95%
===========================================
Track: 09 - Герої
Quality: MPEG 95%
===========================================
Track: 10 - Ламбада
Quality: MPEG 95%
===========================================
Track: 11 - Дала-С Мене
Quality: MPEG 95%
===========================================
Track: 12 - Ішов Козак Потайком
Quality: MPEG 95%
===========================================
Тривалість: 00:35:17
Мова: українська, частково російська (5,7)
Аудіо-кодек: WavPack
Бітрейт: 887 кб/с
Джерело: рутрекер (tatuk)
Додаткова інформація:
Кіч, доведений до певного рівня досконалості – це вже не несмак, а доволі складний, цікавий і, безумовно, насмішкуватий стиль. Власне, Сонцекльош і Несмак від самого початку в парі не ходили – тож гурт на власному прикладі чудово доводить, що серйозне почуття гумору може завести доволі далеко. Сонцекльош воно довело до дуже щільного концертного графіку, широкого визнання у не таких вже й вузьких колах, а тепер – і до другого альбому. Альбом, повірте, гарний – він навіть кращий від "Олено, не плач!": більш різноманітний і, відповідно, яскравий. Тобто, тепер класна ідея обросла купою смачних подробиць, у піснях стало більше неочікуваних стилізацій, вставок і ритмів – майстерність музикантів росте цілком очевидно, тож відчувається значно більша свобода у втіленні музичних фантазій. І це просто кльово – кльошово? – настільки, що протягом звучання платівки практично постійно посміхаєшся. То подумки, а то й на всю вулицю... А Герої... є таке дивне відчуття, що це – ми з вами. Беззахисні, кумедні, але часом такі зворушливі – хоч до рани прикладай...


Якщо Ви справді бажаєте підтримати українське - після прослуховування, якщо музика вам сподобалась,
придбайте ліцензійний диск.
Підтримаймо вітчизняних виконавців!


Срібний реліз (на рейтинг впливає 50% завантаженого)
 Трекер:    Зареєстрований   

Завантажити / скачати українську музику



відео для новачків



 Зареєстрований:   2013-04-14 14:21
 Розмір:   310 MB 
 Оцінка музики:   7.2/10 (Голосів: 10)
   
ssTAss 
Модератор музики


З нами з: 05.07.08
Востаннє: 10.12.16
Повідомлень: 10950

2013-04-14 14:24  
на жаль, агенція "Наш Формат" записала диск з мр3 (див. звіт)
але хай буде точна копія диску
кому потрібно мр3 - переходьте сюди http://toloka.to/t25283

mcyorik 
Новенький


З нами з: 03.11.12
Востаннє: 10.11.16
Повідомлень: 2

2013-06-11 22:25  
мелодія,текст,якість - просто супер!!!раджу всім для гарного настрою.5++
Ваш часовий пояс: GMT + 2 Години

Нова тема   Відповісти