Завантажити та скачати торренти українською


Ненароджений / The Unborn [UNRATED] (2009) 1080p Ukr/Eng | sub Eng

Нові коментарі

Нова тема   Відповісти
Останній раз роздавалося dRAgonjInne (2016-11-08)
Автор Повідомлення
pyatachok 
Координатор літератури


З нами з: 30.01.10
Востаннє: 07.12.16
Повідомлень: 1337

2013-04-14 13:03  
Ненароджений / The Unborn [UNRATED] (2009) 1080p Ukr/Eng | sub Eng




Жанр: містика, трилер, жахи
Країна: США



Кіностудія / кінокомпанія: Rogue Pictures, Platinum Dunes, Phantom Four
Режисер: Девід С. Ґоєр / David S. Goyer
Актори: Одетте Енабл / Odette Annable, Ґері Олдмен / Gary Oldman, Кем Ґіґандет / Cam Gigandet, Меґан Ґуд / Meagan Good, Ідріс Ельба / Idris Elba, Джейн Александер / Jane Alexander, Аттікус Шаффер / Atticus Shaffer та інші

Сюжет:
Кейсі Белдон, що знаходиться в депресії після дивного самогубства матері, переслідують кошмарні видіння та сни, в яких до неї підходить дивний на вигляд собака з перевернутою догори мордою, огидні комахи і дитина з мертвотно-блідою шкірою і неприродно блакитними очима, одягнена в старомодний костюмчик...


Тривалість: 01:28:43 [Unrated Version]
Якість: 1080p
Відео:
кодек:
розмір кадру: 1920x800
бітрейт: ~8113 кб/с

Аудіо 1:
мова: українська
переклад: багатоголосий закадровий
кодек: 2.0
бітрейт: 192 кб/с

Аудіо 2:
мова: англійська
переклад: оригінал
кодек: 5,1
бітрейт: 640 кб/с

Джерело озвучення:


Субтитри 1:
мова: українська (форсовані, до місць без перекладу)
тип: програмні (м'які)
формат: *.srt

Субтитри 2:
мова: англійська
тип: пререндерні
формат: *.pgs

УВАГА!!! Завдяки клятому Universal Pictures дубляж від "LeDoyen Studio" ми втратили. Хто має змогу "подякуйте" їм за це


Скріншоти
Original vs Encode
MediaInfo
Код:
General
Unique ID                                : 174723836608367736154820781084547763326 (0x8372963E91ACBED3B2610566C3FC4C7E)
Complete name                            : D:\Movie\HD\The Unborn (2009) [Ukr,Eng] 1080p [Hurtom-pyatachok].mkv
Format                                   : Matroska
Format version                           : Version 4 / Version 2
File size                                : 5.56 GiB
Duration                                 : 1h 28mn
Overall bit rate                         : 8 976 Kbps
Movie name                               : The Unborn (2009) - Release for Hurtom
Encoded date                             : UTC 2013-04-14 11:55:20
Writing application                      : mkvmerge v6.1.0 ('Old Devil') built on Mar  2 2013 14:32:37
Writing library                          : libebml v1.3.0 + libmatroska v1.4.0

Video
ID                                       : 1
Format                                   : AVC
Format/Info                              : Advanced Video Codec
Format profile                           : [email protected]
Format settings, CABAC                   : Yes
Format settings, ReFrames                : 5 frames
Codec ID                                 : V_MPEG4/ISO/AVC
Duration                                 : 1h 28mn
Bit rate                                 : 8 113 Kbps
Width                                    : 1 920 pixels
Height                                   : 800 pixels
Display aspect ratio                     : 2.40:1
Frame rate mode                          : Constant
Frame rate                               : 23.976 fps
Color space                              : YUV
Chroma subsampling                       : 4:2:0
Bit depth                                : 8 bits
Scan type                                : Progressive
Bits/(Pixel*Frame)                       : 0.220
Stream size                              : 4.94 GiB (89%)
Writing library                          : core 130 r2273 b3065e6
Encoding settings                        : cabac=1 / ref=5 / deblock=1:-3:-3 / analyse=0x3:0x133 / me=umh / subme=11 / psy=1 / psy_rd=1.00:0.15 / mixed_ref=1 / me_range=32 / chroma_me=1 / trellis=2 / 8x8dct=1 / cqm=0 / deadzone=21,11 / fast_pskip=0 / chroma_qp_offset=-3 / threads=12 / lookahead_threads=1 / sliced_threads=0 / nr=0 / decimate=1 / interlaced=0 / bluray_compat=0 / constrained_intra=0 / bframes=6 / b_pyramid=2 / b_adapt=2 / b_bias=0 / direct=3 / weightb=1 / open_gop=0 / weightp=2 / keyint=240 / keyint_min=23 / scenecut=40 / intra_refresh=0 / rc=2pass / mbtree=0 / bitrate=8113 / ratetol=1.0 / qcomp=0.60 / qpmin=0 / qpmax=69 / qpstep=4 / cplxblur=20.0 / qblur=0.5 / ip_ratio=1.40 / pb_ratio=1.30 / aq=1:1.00
Default                                  : Yes
Forced                                   : No

Audio #1
ID                                       : 2
Format                                   : AC-3
Format/Info                              : Audio Coding 3
Mode extension                           : CM (complete main)
Format settings, Endianness              : Big
Codec ID                                 : A_AC3
Duration                                 : 1h 28mn
Bit rate mode                            : Constant
Bit rate                                 : 192 Kbps
Channel(s)                               : 2 channels
Channel positions                        : Front: L R
Sampling rate                            : 48.0 KHz
Bit depth                                : 16 bits
Compression mode                         : Lossy
Stream size                              : 122 MiB (2%)
Title                                    : 2.0 192kbps, українська
Language                                 : Ukrainian
Default                                  : Yes
Forced                                   : No

Audio #2
ID                                       : 3
Format                                   : AC-3
Format/Info                              : Audio Coding 3
Mode extension                           : CM (complete main)
Format settings, Endianness              : Big
Codec ID                                 : A_AC3
Duration                                 : 1h 28mn
Bit rate mode                            : Constant
Bit rate                                 : 640 Kbps
Channel(s)                               : 6 channels
Channel positions                        : Front: L C R, Side: L R, LFE
Sampling rate                            : 48.0 KHz
Bit depth                                : 16 bits
Compression mode                         : Lossy
Stream size                              : 406 MiB (7%)
Title                                    : 5.1  640kbps, англійська
Language                                 : English
Default                                  : No
Forced                                   : No

Text #1
ID                                       : 4
Format                                   : UTF-8
Codec ID                                 : S_TEXT/UTF8
Codec ID/Info                            : UTF-8 Plain Text
Title                                    : ukr forced
Language                                 : Ukrainian
Default                                  : No
Forced                                   : No

Text #2
ID                                       : 5
Format                                   : PGS
Codec ID                                 : S_HDMV/PGS
Codec ID/Info                            : The same subtitle format used on BDs/HD-DVDs
Language                                 : English
Default                                  : Yes
Forced                                   : No

log
Код:

[info]: using SAR=1/1
[info]: using cpu capabilities: MMX2 SSE2Fast SSSE3 SSE4.2 AVX
[info]: profile High, level 4.1

[info]: frame I:974   Avg QP:15.22  size:189642
[info]: frame P:29831 Avg QP:17.29  size: 68928
[info]: frame B:96841 Avg QP:19.60  size: 32616
[info]: consecutive B-frames:  3.8%  5.6%  4.0% 18.8% 13.7% 44.3%  9.8%
[info]: mb I  I16..4: 20.3% 67.3% 12.4%
[info]: mb P  I16..4:  3.0% 17.6%  1.2%  P16..4: 24.6% 27.5%  8.3%  1.4%  0.1%    skip:16.2%
[info]: mb B  I16..4:  0.3%  1.9%  0.1%  B16..8: 39.5% 17.8%  2.4%  direct: 7.8%  skip:30.1%  L0:44.1% L1:44.1% BI:11.8%
[info]: 8x8 transform intra:79.6% inter:51.2%
[info]: direct mvs  spatial:99.1% temporal:0.9%
[info]: coded y,uvDC,uvAC intra: 87.1% 79.6% 62.6% inter: 31.6% 20.6% 4.6%
[info]: i16 v,h,dc,p: 28%  8% 18% 46%
[info]: i8 v,h,dc,ddl,ddr,vr,hd,vl,hu:  8%  7% 15% 10% 12% 11% 12% 12% 14%
[info]: i4 v,h,dc,ddl,ddr,vr,hd,vl,hu: 11%  8% 17%  8% 12% 11% 11% 10% 13%
[info]: i8c dc,h,v,p: 47% 22% 17% 15%
[info]: Weighted P-Frames: Y:11.1% UV:7.5%
[info]: ref P L0: 54.4%  6.7% 21.1% 10.5%  6.5%  0.6%  0.1%
[info]: ref B L0: 72.8% 20.4%  5.5%  1.2%
[info]: ref B L1: 89.8% 10.2%
[info]: kb/s:8113.53


За запис з ТБ подяка п. xslim
За синхронізацію звуку подяка п. patriot2305


Джерело:


 Трекер:    Зареєстрований   

Завантажити / скачати фільм українською



відео для новачків



 Зареєстрований:   2013-04-14 16:16
 Розмір:   5.56 GB 
 Оцінка фільму:   8.8/10 (Голосів: 6)
   
Інші релізи
   Ненароджений / The Unborn [UNRATED] (2009) 720p - mini pyatachok  1 / 0   2.18 GB   2013-04-14 10:56 
   Ненароджений / The Unborn [UNRATED] (2009) patriot2305  2 / 0   1.34 GB   2013-04-13 19:38 
bot 
робот


З нами з: 30.09.07
Востаннє: 26.05.05
Повідомлень: 16024

2013-04-14 13:04  
Тему перенесено з Фільми в HD до форуму Анонси релізів від Відео Гуртом


pyatachok

bot 
робот


З нами з: 30.09.07
Востаннє: 26.05.05
Повідомлень: 16024

2013-04-14 16:15  
Тему перенесено з Анонси релізів від Відео Гуртом до форуму Фільми в HD


pyatachok

Andriy063 
Відео Гуртом - підтримка та поширення
Відео Гуртом - підтримка та поширення


З нами з: 26.09.10
Востаннє: 05.12.16
Повідомлень: 371

2013-04-14 19:41  
а хіба не можна якось масово вплинути на Юніверсал, петиції там оформити чи що..
patriot2305 
Почесний гуртомівець


З нами з: 23.04.11
Востаннє: 07.12.16
Повідомлень: 4145

2013-04-14 21:25  
Andriy063 написано:
а хіба не можна якось масово вплинути на Юніверсал, петиції там оформити чи що..

Я цим виродкам писав 2 місяці щовихідних про втрачені дубляжі (до речі тема, що і куди писати тут: http://toloka.to/t37400 ) та ніякої відповіді я так і не отримав, потім перестав писати, мене задовбав їхній ігнор

Ваш часовий пояс: GMT + 2 Години

Нова тема   Відповісти