Завантажити та скачати торренти українською


Ненароджений / The Unborn [UNRATED] (2009) 720p - mini

Нові коментарі

Нова тема   Відповісти
Автор Повідомлення
pyatachok 
Координатор літератури


З нами з: 30.01.10
Востаннє: 06.12.16
Повідомлень: 1337

2013-04-14 00:10  
Ненароджений / The Unborn [UNRATED] (2009) 720p - mini




Жанр: містика, трилер, жахи
Країна: США



Кіностудія / кінокомпанія: Rogue Pictures, Platinum Dunes, Phantom Four
Режисер: Девід С. Ґоєр / David S. Goyer
Актори: Одетте Енабл / Odette Annable, Ґері Олдмен / Gary Oldman, Кем Ґіґандет / Cam Gigandet, Меґан Ґуд / Meagan Good, Ідріс Ельба / Idris Elba, Джейн Александер / Jane Alexander, Аттікус Шаффер / Atticus Shaffer та інші

Сюжет:
Кейсі Белдон, що знаходиться в депресії після дивного самогубства матері, переслідують кошмарні видіння та сни, в яких до неї підходить дивний на вигляд собака з перевернутою догори мордою, огидні комахи і дитина з мертвотно-блідою шкірою і неприродно блакитними очима, одягнена в старомодний костюмчик...


Тривалість: 01:28:43 [Unrated Version]
Якість: 720p
Відео:
кодек:
розмір кадру: 1280x534
бітрейт: ~3321 кб/с

Аудіо:
мова: українська
переклад: багатоголосий закадровий
кодек: 2.0
бітрейт: 192 кб/с

Джерело озвучення:


Субтитри:
мова: українська (форсовані, до місць без перекладу)
тип: програмні (м'які)
формат: *.srt

УВАГА!!! Завдяки клятому Universal Pictures дубляж від "LeDoyen Studio" ми втратили. Хто має змогу "подякуйте" їм за це


Скріншоти
Original vs Encode
MediaInfo
Код:
General
Unique ID                                : 231703539895977513278726112862122913888 (0xAE507A839AA390D1BBD22C553BE5B060)
Complete name                            : D:\Movie\HD\The Unborn (2009) [Ukr] 720p [Hurtom-pyatachok].mkv
Format                                   : Matroska
Format version                           : Version 4 / Version 2
File size                                : 2.18 GiB
Duration                                 : 1h 28mn
Overall bit rate                         : 3 514 Kbps
Movie name                               : The Unborn (2009) - Release for Hurtom
Encoded date                             : UTC 2013-04-14 08:43:56
Writing application                      : mkvmerge v6.1.0 ('Old Devil') built on Mar  2 2013 14:32:37
Writing library                          : libebml v1.3.0 + libmatroska v1.4.0

Video
ID                                       : 1
Format                                   : AVC
Format/Info                              : Advanced Video Codec
Format profile                           : [email protected]
Format settings, CABAC                   : Yes
Format settings, ReFrames                : 9 frames
Codec ID                                 : V_MPEG4/ISO/AVC
Duration                                 : 1h 28mn
Bit rate                                 : 3 321 Kbps
Width                                    : 1 280 pixels
Height                                   : 534 pixels
Display aspect ratio                     : 2.40:1
Frame rate mode                          : Constant
Frame rate                               : 23.976 fps
Color space                              : YUV
Chroma subsampling                       : 4:2:0
Bit depth                                : 8 bits
Scan type                                : Progressive
Bits/(Pixel*Frame)                       : 0.203
Stream size                              : 2.02 GiB (93%)
Writing library                          : core 130 r2273 b3065e6
Encoding settings                        : cabac=1 / ref=9 / deblock=1:-3:-3 / analyse=0x3:0x133 / me=umh / subme=11 / psy=1 / psy_rd=1.00:0.15 / mixed_ref=1 / me_range=32 / chroma_me=1 / trellis=2 / 8x8dct=1 / cqm=0 / deadzone=21,11 / fast_pskip=0 / chroma_qp_offset=-3 / threads=12 / lookahead_threads=1 / sliced_threads=0 / nr=0 / decimate=1 / interlaced=0 / bluray_compat=0 / constrained_intra=0 / bframes=6 / b_pyramid=2 / b_adapt=2 / b_bias=0 / direct=3 / weightb=1 / open_gop=0 / weightp=2 / keyint=240 / keyint_min=23 / scenecut=40 / intra_refresh=0 / rc=2pass / mbtree=0 / bitrate=3321 / ratetol=1.0 / qcomp=0.60 / qpmin=0 / qpmax=69 / qpstep=4 / cplxblur=20.0 / qblur=0.5 / ip_ratio=1.40 / pb_ratio=1.30 / aq=1:1.00
Default                                  : Yes
Forced                                   : No

Audio
ID                                       : 2
Format                                   : AC-3
Format/Info                              : Audio Coding 3
Mode extension                           : CM (complete main)
Format settings, Endianness              : Big
Codec ID                                 : A_AC3
Duration                                 : 1h 28mn
Bit rate mode                            : Constant
Bit rate                                 : 192 Kbps
Channel(s)                               : 2 channels
Channel positions                        : Front: L R
Sampling rate                            : 48.0 KHz
Bit depth                                : 16 bits
Compression mode                         : Lossy
Stream size                              : 122 MiB (5%)
Title                                    : 2.0, українська
Language                                 : Ukrainian
Default                                  : Yes
Forced                                   : No

Text
ID                                       : 3
Format                                   : UTF-8
Codec ID                                 : S_TEXT/UTF8
Codec ID/Info                            : UTF-8 Plain Text
Language                                 : Ukrainian
Default                                  : Yes
Forced                                   : No
log
Код:
[info]: using SAR=1/1
[info]: using cpu capabilities: MMX2 SSE2Fast SSSE3 SSE4.2 AVX
[info]: profile High, level 4.1

[info]: frame I:1099  Avg QP:14.69  size:101909
[info]: frame P:27575 Avg QP:17.12  size: 32771
[info]: frame B:98972 Avg QP:19.21  size: 12061
[info]: consecutive B-frames:  2.7%  2.8%  6.6% 16.8% 13.7% 42.3% 15.1%
[info]: mb I  I16..4: 19.8% 63.6% 16.6%
[info]: mb P  I16..4:  1.4% 11.2%  1.2%  P16..4: 27.1% 32.8% 12.6%  2.2%  0.2%    skip:11.2%
[info]: mb B  I16..4:  0.1%  1.1%  0.1%  B16..8: 36.8% 19.9%  3.3%  direct: 5.1%  skip:33.5%  L0:44.5% L1:45.4% BI:10.1%
[info]: 8x8 transform intra:78.2% inter:54.4%
[info]: direct mvs  spatial:97.9% temporal:2.1%
[info]: coded y,uvDC,uvAC intra: 86.1% 81.1% 66.0% inter: 25.4% 15.8% 3.8%
[info]: i16 v,h,dc,p: 32%  7% 22% 39%
[info]: i8 v,h,dc,ddl,ddr,vr,hd,vl,hu: 12%  7% 14%  9% 12% 12% 11% 11% 12%
[info]: i4 v,h,dc,ddl,ddr,vr,hd,vl,hu: 18%  7% 11%  8% 12% 12% 11% 10% 11%
[info]: i8c dc,h,v,p: 45% 23% 17% 15%
[info]: Weighted P-Frames: Y:12.0% UV:7.6%
[info]: ref P L0: 48.2%  6.9% 17.0%  8.6%  6.3%  4.9%  3.8%  2.3%  1.7%  0.2%  0.0%
[info]: ref B L0: 68.2% 15.3%  7.3%  3.7%  2.5%  1.8%  0.9%  0.3%
[info]: ref B L1: 90.6%  9.4%
[info]: kb/s:3319.95


За запис з ТБ подяка п. xslim
За синхронізацію звуку подяка п. patriot2305


Джерело:


 Трекер:    Зареєстрований   

Завантажити / скачати фільм українською



відео для новачків



 Зареєстрований:   2013-04-14 10:56
 Розмір:   2.18 GB 
 Оцінка фільму:   9.6/10 (Голосів: 11)
   
Інші релізи
   Ненароджений / The Unborn [UNRATED] (2009) 1080p Ukr/Eng | sub Eng pyatachok  0 / 0   5.56 GB   2013-04-14 16:16 
   Ненароджений / The Unborn [UNRATED] (2009) patriot2305  3 / 0   1.34 GB   2013-04-13 19:38 
bot 
робот


З нами з: 30.09.07
Востаннє: 26.05.05
Повідомлень: 16012

2013-04-14 00:10  
Тему перенесено з Фільми в HD до форуму Анонси релізів від Відео Гуртом


pyatachok

bot 
робот


З нами з: 30.09.07
Востаннє: 26.05.05
Повідомлень: 16012

2013-04-14 10:55  
Тему перенесено з Анонси релізів від Відео Гуртом до форуму Фільми в HD


pyatachok

Ваш часовий пояс: GMT + 2 Години

Нова тема   Відповісти