Завантажити та скачати торренти українською


Західно-Український камерний оркестр - Духовна українська інструментальна музика (2004) [FLAC] | Classical

Нові коментарі

Нова тема   Відповісти
Останній раз роздавалося Dan_doctor (2016-12-08)
Автор Повідомлення
Anonymous 







2013-04-13 17:38  
Західно-Український камерний оркестр - Духовна українська інструментальна музика (2004) [FLAC] | Classical

Західно-Український камерний оркестр - Духовна українська інструментальна музика (2004) [FLAC] | Classical


Стиль: Christian Instrumental Classic
Країна, місто: Україна, Львів
Видавець: СП "Студія Лева"
Виконавці:
Західно-Український камерний оркестр
диригент Юрій Голота

Пісні:
    1. Херувимська (Д. Бортнянський)
    2. Концерт №3 (Д. Бортнянський)
    3. Великодній канон (М. Дилецький)
    4. Концерт №33 (Д. Бортнянський)
    5. Отче наш (М. Березовський)
    6. Молитва (В. Барвінський)
    7. Концерт №15 (Д. Бортнянський)
    8. Не отвержи мене (М. Березовський)
    9. Largetto з Концертної симфонії (Д. Бортнянський)
    10. Будь ім'я Господнє (Д. Бортнянський)
    11. Концерт №32 (Д. Бортнянський)
    12. Єдинородний сину (М. Вербицький)
    13. Молитва за Україну (М. Лисенко)
log
Exact Audio Copy V1.0 beta 3 from 29. August 2011

Отчёт EAC об извлечении, выполненном 13. апреля 2013, 17:55

Західно-Український камерний оркестр / Духовна українська інструментальна музика

Дисковод: TSSTcorpCDDVDW TS-L633A Adapter: 0 ID: 1

Режим чтения : Достоверность
Использование точного потока : Да
Отключение кэша аудио : Да
Использование указателей C2 : Нет

Коррекция смещения при чтении : 6
Способность читать области Lead-in и Lead-out : Нет
Заполнение пропущенных сэмплов тишиной : Да
Удаление блоков с тишиной в начале и конце : Нет
При вычислениях CRC использовались нулевые сэмплы : Да
Интерфейс : Встроенный Win32-интерфейс для Win NT/2000

Выходной формат : Внутренние WAV-операции
Формат сэмплов : 44.100 Гц; 16 бит; стерео

TOC извлечённого CD

Трек | Старт | Длительность | Начальный сектор | Конечный сектор
---------------------------------------------------------------------
1 | 0:00.00 | 3:32.69 | 0 | 15968
2 | 3:32.69 | 7:29.08 | 15969 | 49651
3 | 11:02.02 | 8:06.35 | 49652 | 86136
4 | 19:08.37 | 7:35.30 | 86137 | 120291
5 | 26:43.67 | 5:32.72 | 120292 | 145263
6 | 32:16.64 | 3:26.36 | 145264 | 160749
7 | 35:43.25 | 5:30.29 | 160750 | 185528
8 | 41:13.54 | 11:16.27 | 185529 | 236255
9 | 52:30.06 | 6:02.26 | 236256 | 263431
10 | 58:32.32 | 0:32.60 | 263432 | 265891
11 | 59:05.17 | 9:59.18 | 265892 | 310834
12 | 69:04.35 | 3:52.21 | 310835 | 328255
13 | 72:56.56 | 2:42.39 | 328256 | 340444

Характеристики диапазона извлечения и сообщения об ошибках

Выбранный диапазон

Имя файла C:\Users\toshiba\Downloads\RelizyZ11\Zakhidno-Ukrayinskyi kamernyi orkestr - Dukhovna ukrayinska instrumentalna muzyka (2003) [FLAC]\Західно-Український камерний оркестр - Духовна українська інструментальна музика.wav

Пиковый уровень 60.3 %
Скорость извлечения 4.0 X
Качество диапазона 100.0 %
CRC копии 4AAA1D3B
Копирование... OK

Ошибок не произошло

AccurateRip: сводка

Трек 1 отсутствует в базе данных
Трек 2 отсутствует в базе данных
Трек 3 отсутствует в базе данных
Трек 4 отсутствует в базе данных
Трек 5 отсутствует в базе данных
Трек 6 отсутствует в базе данных
Трек 7 отсутствует в базе данных
Трек 8 отсутствует в базе данных
Трек 9 отсутствует в базе данных
Трек 10 отсутствует в базе данных
Трек 11 отсутствует в базе данных
Трек 12 отсутствует в базе данных
Трек 13 отсутствует в базе данных

Ни одного трека нет в базе AccurateRip

Конец отчёта

---- CUETools DB Plugin V2.1.3

[CTDB TOCID: CUGjz_Zwd3MxfOJoXKX3gT4IwQ0-] disk not present in database, Submit result: CUGjz_Zwd3MxfOJoXKX3gT4IwQ0- has been uploaded
Log Audiochecker
AUDIOCHECKER v2.0 beta (build 457) - by Dester - [email protected]
~~~~~~~~~~~~~~~~~~~~~~~~~~~~~~~~~~

Started at: суббота, 13. 04. 2013. - 18:16.24
1 file found

1 -===- C:\...Zakhidno-Ukrayinskyi kamernyi orkestr - Dukhovna ukrayinska instrumentalna muzyka (2003) [FLAC]\Західно-Український камерний оркестр - Духовна українська інструментальна музика.flac
Extracted successfully
Conclusion: this track is CDDA with probability 100%
Tempfile successfully deleted.

Finished at: суббота, 13. 04. 2013. - 18:29.47 (operation time: 0:13.22)
Тривалість: 01:15:38
Мова: інструментальні композиції
Аудіо-кодек: FLAC
Бітрейт: 691 кб/с
Джерело: власний ріп з диску
Додаткова інформація:
Привертає назва увагу, чи не так? Мою, у всякому разі, привернула. І не помилився, і задоволений, що послухав цей диск. Бо останнім часом вже дещо втомився від пісень, навіть і гарних, а тут – ані слова. Просто чисті звуки, дійсно чисті. До того ж, і оркестр не симфонічний, а камерний. Особисто мені більше подобаються камерні оркестри – більш інтимне звучання. Є в ньому якась тонка ліричність, привітність. Тому не виникає відчуття, ніби прийшов на офіційний прийом, де за плямами облич та галасом зникає щось важливе. Навпаки – відчуваєш так, ніби зустрівся з другом, і він спокійно, але яскраво розповідає тобі якісь історії. Захоплює – але не нав’язує. І коли ви нарешті прощаєтесь, то у тебе всередині залишається – тепло. Може, і не від того навіть, що він тобі розповів – а від того, як. Ось таке відчуття залишає по собі цей альбом. У мене. Але, гадаю, музика Бортнянського, Березовського, Лисенка і решти не залишить байдужими і Вас.

Антон Йожик Лейба


Якщо Ви справді бажаєте підтримати українське - після прослуховування, якщо музика вам сподобалась,
придбайте ліцензійний диск.
Підтримаймо вітчизняних виконавців!


Срібний реліз (на рейтинг впливає 50% завантаженого)
 Трекер:    Зареєстрований   

Завантажити / скачати українську музику



відео для новачків



 Зареєстрований:   2013-04-13 17:38
 Розмір:   376 MB 
 Оцінка музики:   10/10 (Голосів: 10)
   
Ваш часовий пояс: GMT + 2 Години

Нова тема   Відповісти