Завантажити та скачати торренти українською


Чужий: Антологія / Alien Anthology [Director's Cut/Special Edition] (1979/1986/1992/1997) 1080p Ukr/Eng | Sub Ukr/Eng

Нові коментарі

Нова тема   Відповісти
Автор Повідомлення
Anonymous 







2013-04-11 19:31  
Чужий: Антологія / Alien Anthology [Director's Cut/Special Edition] (1979/1986/1992/1997) 1080p Ukr/Eng | Sub Ukr/Eng

Чужий: Антологія / Alien Anthology [Director's Cut/Special Edition] (1979/1986/1992/1997) 1080p Ukr/Eng | Sub Ukr/Eng

Українізований постер


автор - thefir
Чужий (Режисерська версія) / Alien (Director's cut) (1979) 1080p Ukr/Eng | Sub Ukr/Eng

Чужий (Режисерська версія) / Alien (Director's cut) (1979) 1080p Ukr/Eng | Sub Ukr/Eng

Чужий: Антологія / Alien Anthology [Director's Cut/Special Edition] (1979/1986/1992/1997) 1080p Ukr/Eng | Sub Ukr/Eng

Альтернативні українські постери




автор - Gelios



Жанр: жахи, фантастика
Країна: США, Великобританія

Top 250 #40, Премія "Оскар" 1980 р. у номінації "Кращі візуальні ефекти"

Кіностудія / кінокомпанія: Twentieth Century-Fox Productions, Brandywine Productions
Режисер: Рідлі Скотт / Ridley Scott
Актори: Том Скеррітт / Tom Skerritt, Сіґурні Вівер / Sigourney Weaver, Вероніка Картрайт / Veronica Cartwright, Гаррі Дін Стентон / Harry Dean Stanton, Джон Гарт / John Hurt, Єн Холм / Ian Holm та інші.

Сюжет:
У далекому майбутньому вантажний космічний корабель, який повертається на Землю, перехоплює слабкий сигнал SOS з невідомої планети. Екіпаж вирішує виконати посадку і розібратися, що до чого. На планеті астронавти скрізь виявляють предмети, схожі на гігантські кокони або личинки.
На жаль, вони навіть не здогадуються, що в цих коконах чекають свого часу огидні безжальні тварюки, сенс існування яких зведено до винищення всього живого...


рейтинг MPAA: R - особам до 17 років обов'язкова присутність батьків або дорослого опікуна
Вікова категорія: 16+

Тривалість: 01:55:50 (Порівняння Режисерської та Театральної версій)
Якість: 1080p
Відео:
кодек:
розмір кадру: 1920х820
бітрейт: 9186 кб/с

Аудіо # 1: (є неперекладені моменти, на них є субтитри)
мова: українська
переклад: двоголосий закадровий (Остап Ступка та Лариса Руснак)
кодек: 5.1
бітрейт: 384 кб/с

Аудіо # 2:
мова: англійська
переклад: оригінал
кодек: 5.1
бітрейт: 640 кб/с

Субтитри # 1:
мова: українська (форсовані, для моментів без перекладу)
тип: програмні (м'які)
формат: *.srt

Субтитри # 2:
мова: українська (повні)
тип: програмні (м'які)
формат: *.srt

Субтитри # 3:
мова: англійська (SDH)
тип: програмні (м'які)
формат: *.srt

Збережено оригінальні розділи, як на Blu-ray
/ MediaInfo
[info]: frame I:1254 Avg QP:16.31 size:158513
[info]: frame P:52329 Avg QP:19.32 size: 74910
[info]: frame B:113046 Avg QP:20.91 size: 34116

General
Unique ID : 232269971867040435076749959075585738787 (0xAEBD91C433FD031F837A7346E3EE4823)
Complete name : Alien.Anthology.DC&SE.1979-97..1080p.Ukr.Eng\1.Alien.DC.1979..1080p.Ukr.Eng.mkv
Format : Matroska
Format version : Version 4 / Version 2
File size : 8.26 GiB
Duration : 1h 56mn
Overall bit rate : 10.2 Mbps
Movie name : Чужий / Alien (Director's cut) / Чужой (1979)
Encoded date : UTC 2013-04-10 13:19:01
Writing application : mkvmerge v6.1.0 ('Old Devil') built on Mar 2 2013 14:32:37
Writing library : libebml v1.3.0 + libmatroska v1.4.0

Video
ID : 1
Format : AVC
Format/Info : Advanced Video Codec
Format profile : [email protected]
Format settings, CABAC : Yes
Format settings, ReFrames : 5 frames
Codec ID : V_MPEG4/ISO/AVC
Duration : 1h 56mn
Bit rate : 9 186 Kbps
Width : 1 920 pixels
Height : 820 pixels
Display aspect ratio : 2.35:1
Frame rate mode : Constant
Frame rate : 23.976 fps
Color space : YUV
Chroma subsampling : 4:2:0
Bit depth : 8 bits
Scan type : Progressive
Bits/(Pixel*Frame) : 0.243
Stream size : 7.26 GiB (88%)
Title : Чужий / Alien (Director's cut) / Чужой (1979) rip by K.A.F.
Writing library : core 130 r2273 b3065e6
Encoding settings : cabac=1 / ref=5 / deblock=1:-3:-3 / analyse=0x3:0x133 / me=tesa / subme=11 / psy=1 / psy_rd=1.00:0.10 / mixed_ref=1 / me_range=32 / chroma_me=1 / trellis=2 / 8x8dct=1 / cqm=0 / deadzone=21,11 / fast_pskip=0 / chroma_qp_offset=-3 / threads=12 / lookahead_threads=1 / sliced_threads=0 / nr=0 / decimate=0 / interlaced=0 / bluray_compat=0 / constrained_intra=0 / bframes=3 / b_pyramid=2 / b_adapt=2 / b_bias=0 / direct=3 / weightb=1 / open_gop=0 / weightp=2 / keyint=240 / keyint_min=23 / scenecut=40 / intra_refresh=0 / rc_lookahead=60 / rc=2pass / mbtree=1 / bitrate=9186 / ratetol=1.0 / qcomp=0.60 / qpmin=0 / qpmax=69 / qpstep=4 / cplxblur=20.0 / qblur=0.5 / ip_ratio=1.40 / aq=1:1.00
Language : English
Default : Yes
Forced : No

Audio #1
ID : 2
Format : AC-3
Format/Info : Audio Coding 3
Mode extension : CM (complete main)
Format settings, Endianness : Big
Codec ID : A_AC3
Duration : 1h 56mn
Bit rate mode : Constant
Bit rate : 384 Kbps
Channel(s) : 6 channels
Channel positions : Front: L C R, Side: L R, LFE
Sampling rate : 48.0 KHz
Bit depth : 16 bits
Compression mode : Lossy
Delay relative to video : 152ms
Stream size : 319 MiB (4%)
Title : DVO 1+1 5.1 384 kbps [Hurtom-_oles]
Language : Ukrainian
Default : Yes
Forced : No

Audio #2
ID : 3
Format : AC-3
Format/Info : Audio Coding 3
Mode extension : CM (complete main)
Format settings, Endianness : Big
Codec ID : A_AC3
Duration : 1h 56mn
Bit rate mode : Constant
Bit rate : 640 Kbps
Channel(s) : 6 channels
Channel positions : Front: L C R, Side: L R, LFE
Sampling rate : 48.0 KHz
Bit depth : 16 bits
Compression mode : Lossy
Stream size : 532 MiB (6%)
Title : original
Language : English
Default : No
Forced : No

Text #1
ID : 4
Format : UTF-8
Codec ID : S_TEXT/UTF8
Codec ID/Info : UTF-8 Plain Text
Title : Ukr Forced
Language : Ukrainian
Default : Yes
Forced : Yes

Text #2
ID : 5
Format : UTF-8
Codec ID : S_TEXT/UTF8
Codec ID/Info : UTF-8 Plain Text
Title : Ukr Full
Language : Ukrainian
Default : No
Forced : No

Text #3
ID : 6
Format : UTF-8
Codec ID : S_TEXT/UTF8
Codec ID/Info : UTF-8 Plain Text
Title : Eng [SDH]
Language : English
Default : No
Forced : No

Menu
00:00:00.000 : en:Main Titles
00:02:01.120 : en:Auto Pilot
00:04:40.153 : en:Awakening
00:07:55.849 : en:Mu-th-ur
00:09:10.508 : en:Nostromo Re-Routed
00:12:40.425 : en:Locating the Source
00:14:16.105 : en:Answering the Call
00:20:05.912 : en:Walking Distance
00:23:22.651 : en:Proceeding Blindly
00:25:05.252 : en:Dark Horizons
00:27:50.876 : en:A Word of Warning
00:31:51.826 : en:Kane's Descent
00:35:32.922 : en:Surface Tension
00:37:04.347 : en:Facehugger
00:40:33.889 : en:Acid
00:43:26.518 : en:Standard Procedure
00:47:28.302 : en:The Missing Guest
00:50:06.128 : en:It Has to Go Back
00:51:44.309 : en:Long Journey Ahead
00:54:24.677 : en:The Last Supper
00:59:01.746 : en:On the Hunt
01:00:26.872 : en:"Stick Together"
01:03:36.311 : en:"Here Jonesy"
01:08:18.719 : en:"Kane's Son"
01:10:04.948 : en:Into the Air Ducts
01:12:52.408 : en:The Third Junction
01:14:33.926 : en:No Blood, No Dallas
01:17:14.712 : en:Special Order 937
01:19:02.904 : en:Ash Attacks
01:22:34.282 : en:Crew Expendable
01:26:39.234 : en:Escape Plan
01:28:49.573 : en:"Kitty, Kitty, Kitty"
01:30:48.734 : en:Cornered
01:32:39.761 : en:Auto-Destruct Initiated
01:34:23.782 : en:Mercy
01:37:45.149 : en:Override Failed
01:39:14.448 : en:Narscissus Escape
01:43:28.243 : en:Survivors
01:46:17.953 : en:"You Are My Lucky Star"
01:53:05.610 : en:End Credits
Чужі (Спеціальне видання) / Aliens (Special Edition) (1986) 1080p Ukr/Eng | Sub Ukr/Eng

Чужі (Спеціальне видання) / Aliens (Special Edition) (1986) 1080p Ukr/Eng | Sub Ukr/Eng


Альтернативний постер
Чужий: Антологія / Alien Anthology [Director's Cut/Special Edition] (1979/1986/1992/1997) 1080p Ukr/Eng | Sub Ukr/Eng


Жанр: жахи, фантастика, бойовик, трилер, пригоди
Країна: США, Великобританія

Top 250 #58
Дві Премії "Оскар" 1987 р. у номінаціях: "Кращий монтаж звуку"
та "Кращі візуальні ефекти"


Кіностудія / кінокомпанія: Twentieth Century-Fox Productions, Brandywine Productions
Режисер: Джеймс Камерон / James Cameron
Актори: Сіґурні Вівер / Sigourney Weaver, Керрі Генн / Carrie Henn, Майкл Бін / Michael Biehn, Ланс Генріксен / Lance Henriksen, Пол Рейзер / Paul Reiser та інші.

Сюжет:
Чужий - досконалий організм. Ідеальна машина для вбивства, чия фізична перевага поєднується з його феноменальною жагою знищення. Офіцер Елен Ріплі і команда космічного корабля "Ностромо" одного разу вже зустрілася з такою істотою. У живих залишилася тільки Елен.
Капсула з Елен знайдена рятувальниками після багатьох років блукання у космосі. Їй повідомляють, що планета LV-426 колонізована, і їй доведеться повернутися туди, де розпочалося її пекло, тому що зв'язок із колоністами перервався.
І ось у складі групи космічного десанту Ріплі вирушає на прокляту планету. Але тепер на людей там чекає не один Чужий, а тисячі. Хто зможе вижити у цій війні: чудовиська, здатні лише вбивати, або люди, здатні мислити?


рейтинг MPAA: R - особам до 17 років обов'язкова присутність батьків або дорослого опікуна
Вікова категорія: 16+

Тривалість: 02:34:27 Порівняння Режисерської та Театральної версій
Якість: 1080p Порівняння Режисерських версій на DVD та Blu-Ray
Відео:
кодек:
розмір кадру: 1920х1040
бітрейт: 11347 кб/с

Аудіо # 1: (є неперекладені моменти, на них є субтитри)
мова: українська
переклад: двоголосий закадровий (Остап Ступка та Лариса Руснак)
кодек: 5.1
бітрейт: 384 кб/с

Аудіо # 2:
мова: англійська
переклад: оригінал
кодек: 5.1
бітрейт: 640 кб/с

Субтитри # 1:
мова: українська (форсовані, для моментів без перекладу)
тип: програмні (м'які)
формат: *.srt

Субтитри # 2:
мова: українська (повні)
тип: програмні (м'які)
формат: *.srt

Субтитри # 3:
мова: англійська (SDH)
тип: програмні (м'які)
формат: *.srt

Збережено оригінальні розділи, як на Blu-ray
/ MediaInfo
[info]: frame I:1351 Avg QP:23.03 size:180754
[info]: frame P:76102 Avg QP:25.73 size: 80227
[info]: frame B:144730 Avg QP:26.02 size: 46924

General
Unique ID : 222802870346926872537536171109103768884 (0xA79E459FCDAFC6ADAB524AC850B91534)
Complete name : Alien.Anthology.DC&SE.1979-97..1080p.Ukr.Eng\2.Aliens.SE.1986..1080p.Ukr.Eng.mkv
Format : Matroska
Format version : Version 4 / Version 2
File size : 13.3 GiB
Duration : 2h 34mn
Overall bit rate : 12.4 Mbps
Movie name : Чужі / Aliens (Special Edition) / Чужие (1986)
Encoded date : UTC 2013-04-10 16:26:32
Writing application : mkvmerge v6.1.0 ('Old Devil') built on Mar 2 2013 14:32:37
Writing library : libebml v1.3.0 + libmatroska v1.4.0

Video
ID : 1
Format : AVC
Format/Info : Advanced Video Codec
Format profile : [email protected]
Format settings, CABAC : Yes
Format settings, ReFrames : 4 frames
Codec ID : V_MPEG4/ISO/AVC
Duration : 2h 34mn
Bit rate : 11.3 Mbps
Width : 1 920 pixels
Height : 1 040 pixels
Display aspect ratio : 1.85:1
Frame rate mode : Constant
Frame rate : 23.976 fps
Color space : YUV
Chroma subsampling : 4:2:0
Bit depth : 8 bits
Scan type : Progressive
Bits/(Pixel*Frame) : 0.237
Stream size : 12.0 GiB (90%)
Title : Чужі / Aliens (Special Edition) / Чужие (1986), rip by K.A.F.
Writing library : core 130 r2273 b3065e6
Encoding settings : cabac=1 / ref=4 / deblock=1:0:0 / analyse=0x3:0x133 / me=tesa / subme=11 / psy=1 / psy_rd=1.00:0.10 / mixed_ref=1 / me_range=32 / chroma_me=1 / trellis=2 / 8x8dct=1 / cqm=0 / deadzone=21,11 / fast_pskip=0 / chroma_qp_offset=-3 / threads=12 / lookahead_threads=1 / sliced_threads=0 / nr=0 / decimate=0 / interlaced=0 / bluray_compat=0 / constrained_intra=0 / bframes=3 / b_pyramid=2 / b_adapt=2 / b_bias=0 / direct=3 / weightb=1 / open_gop=0 / weightp=2 / keyint=240 / keyint_min=23 / scenecut=40 / intra_refresh=0 / rc_lookahead=60 / rc=2pass / mbtree=1 / bitrate=11347 / ratetol=1.0 / qcomp=0.60 / qpmin=0 / qpmax=69 / qpstep=4 / cplxblur=20.0 / qblur=0.5 / ip_ratio=1.40 / aq=1:1.00
Language : English
Default : Yes
Forced : No

Audio #1
ID : 2
Format : AC-3
Format/Info : Audio Coding 3
Mode extension : CM (complete main)
Format settings, Endianness : Big
Codec ID : A_AC3
Duration : 2h 34mn
Bit rate mode : Constant
Bit rate : 384 Kbps
Channel(s) : 6 channels
Channel positions : Front: L C R, Side: L R, LFE
Sampling rate : 48.0 KHz
Bit depth : 16 bits
Compression mode : Lossy
Delay relative to video : 5s 43ms
Stream size : 424 MiB (3%)
Title : DVO 1+1 5.1 384 kbps [Hurtom-_oles]
Language : Ukrainian
Default : Yes
Forced : No

Audio #2
ID : 3
Format : AC-3
Format/Info : Audio Coding 3
Mode extension : CM (complete main)
Format settings, Endianness : Big
Codec ID : A_AC3
Duration : 2h 34mn
Bit rate mode : Constant
Bit rate : 640 Kbps
Channel(s) : 6 channels
Channel positions : Front: L C R, Side: L R, LFE
Sampling rate : 48.0 KHz
Bit depth : 16 bits
Compression mode : Lossy
Stream size : 707 MiB (5%)
Title : Original
Language : English
Default : No
Forced : No

Text #1
ID : 4
Format : UTF-8
Codec ID : S_TEXT/UTF8
Codec ID/Info : UTF-8 Plain Text
Title : Ukr Forced
Language : Ukrainian
Default : Yes
Forced : Yes

Text #2
ID : 5
Format : UTF-8
Codec ID : S_TEXT/UTF8
Codec ID/Info : UTF-8 Plain Text
Title : Ukr Full
Language : Ukrainian
Default : No
Forced : No

Text #3
ID : 6
Format : UTF-8
Codec ID : S_TEXT/UTF8
Codec ID/Info : UTF-8 Plain Text
Title : Eng [SDH]
Language : English
Default : No
Forced : No

Menu
00:00:00.000 : en:Main Titles
00:02:06.750 : en:Human Salvage
00:05:15.731 : en:57 Years
00:08:34.346 : en:The Park
00:10:52.108 : en:Inquest
00:15:13.619 : en:Lv-426
00:17:25.001 : en:The Big Score
00:20:54.126 : en:Home Alone
00:25:02.500 : en:Ripley's Decision
00:25:57.471 : en:Sulaco
00:30:03.718 : en:The Android
00:32:53.887 : en:Briefing
00:35:56.862 : en:The Loader
00:38:03.530 : en:Express Elevator to Hell
00:45:40.070 : en:Arrival
00:52:28.518 : en:Memories
00:54:48.076 : en:Lab Specimens
00:56:09.114 : en:Movement
01:00:11.106 : en:Newt
01:04:47.506 : en:Rescue Mission
01:10:10.997 : en:Cocoons
01:12:51.992 : en:The Battle
01:16:22.868 : en:Ripley's Rescue
01:21:22.252 : en:Altercation
01:23:17.198 : en:Stranded
01:26:21.134 : en:Barricade
01:31:22.059 : en:A Mother's Love
01:34:37.421 : en:Speculation
01:37:25.255 : en:The Tunnel
01:38:40.706 : en:Bad News
01:41:23.243 : en:The Corridor
01:45:03.462 : en:Dreamland
01:47:15.552 : en:Not a Dream
01:51:41.402 : en:For a Percentage
01:52:58.604 : en:"Game Time"
02:02:10.363 : en:Little Girl Lost
02:05:54.046 : en:Ripley's Promise
02:07:41.986 : en:Reluctant Soldier
02:13:15.528 : en:The Nest
02:17:29.615 : en:The Final Countdown
02:22:24.700 : en:It's Over
02:23:16.710 : en:Final Confrontation
02:30:16.004 : en:Dreams
02:31:36.460 : en:End Titles
Чужий 3 (Спеціальне видання) / Alien³ (2003 Special 'Assembly Cut' Edition) (1992) 1080p Ukr/Eng | Sub Ukr/Eng

Чужий 3 (Спеціальне видання) / Alien³ (2003 Special 'Assembly Cut' Edition) (1992) 1080p Ukr/Eng | Sub Ukr/Eng


Альтернативні постери
Чужий: Антологія / Alien Anthology [Director's Cut/Special Edition] (1979/1986/1992/1997) 1080p Ukr/Eng | Sub Ukr/Eng



Жанр: жахи, фантастика, бойовик, трилер
Країна: США



Кіностудія / кінокомпанія: Twentieth Century-Fox Productions, Brandywine Productions
Режисер: Девід Фінчер / David Fincher
Актори: Сіґурні Вівер / Sigourney Weaver, Чарлз С. Даттон / Charles S. Dutton, Чарлз Данс / Charles Dance, Пол МакҐенн / Paul McGann, Ланс Генріксен / Lance Henriksen та інші.

Сюжет:
Після втечі з планети «Чужих» космічний корабель Ріплі зазнає аварії поблизу так званої планети-в'язниці, місця, де відбувають свій термін убивці, ґвалтівники та інші покидьки. Разом з Ріплі на цю планету попадає зародок чужого, який і став причиною загибелі корабля.
Досить швидко він перетворюється на гігантську, зубату тварюку і починає свою темну справу. Його жертвами стають десятки беззбройних в'язнів. І здається, що зупинити цю машину смерті не зможе ніхто, ніхто, крім відважної, але, на жаль, не безсмертної жінки на ім'я Ріплі.


рейтинг MPAA: R - особам до 17 років обов'язкова присутність батьків або дорослого опікуна
Вікова категорія: 16+

Тривалість: 02:24:53 Порівняння Спеціального видання та Театральної версії
Якість: 1080p
Відео:
кодек:
розмір кадру: 1920х812
бітрейт: 7818 кб/с

Аудіо # 1: (є неперекладені моменти, на них є субтитри)
мова: українська
переклад: двоголосий закадровий (Георгій Гавриленко та Лариса Руснак)
кодек: 5.1
бітрейт: 384 кб/с

Аудіо # 2:
мова: англійська
переклад: оригінал
кодек: 5.1
бітрейт: 640 кб/с

Субтитри # 1:
мова: українська (форсовані, для моментів без перекладу)
тип: програмні (м'які)
формат: *.srt

Субтитри # 2:
мова: українська (повні)
тип: програмні (м'які)
формат: *.srt

Субтитри # 3:
мова: англійська (SDH)
тип: програмні (м'які)
формат: *.srt

Збережено оригінальні розділи, як на Blu-ray
/ MediaInfo
[info]: frame I:1646 Avg QP:17.37 size:123833
[info]: frame P:64901 Avg QP:19.76 size: 61306
[info]: frame B:141867 Avg QP:20.28 size: 30385

General
Unique ID : 179733834565253987010891462409541170628 (0x87377A36F19F54DF92B3BF771D18B5C4)
Complete name : Alien.Anthology.DC&SE.1979-97..1080p.Ukr.Eng\3.Alien3.SE.1992..1080p.Ukr.Eng.mkv
Format : Matroska
Format version : Version 4 / Version 2
File size : 8.95 GiB
Duration : 2h 24mn
Overall bit rate : 8 840 Kbps
Movie name : Чужий 3 / Alien³ (Special Edition) / Чужой 3
Encoded date : UTC 2013-04-11 09:30:30
Writing application : mkvmerge v6.1.0 ('Old Devil') built on Mar 2 2013 14:32:37
Writing library : libebml v1.3.0 + libmatroska v1.4.0

Video
ID : 1
Format : AVC
Format/Info : Advanced Video Codec
Format profile : [email protected]
Format settings, CABAC : Yes
Format settings, ReFrames : 5 frames
Codec ID : V_MPEG4/ISO/AVC
Duration : 2h 24mn
Bit rate : 7 818 Kbps
Width : 1 920 pixels
Height : 812 pixels
Display aspect ratio : 2.35:1
Frame rate mode : Constant
Frame rate : 23.976 fps
Color space : YUV
Chroma subsampling : 4:2:0
Bit depth : 8 bits
Scan type : Progressive
Bits/(Pixel*Frame) : 0.209
Stream size : 7.73 GiB (86%)
Title : Чужий 3 / Alien³ (Special Edition) / Чужой 3, rip by K.A.F.
Writing library : core 130 r2273 b3065e6
Encoding settings : cabac=1 / ref=5 / deblock=1:-3:-3 / analyse=0x3:0x133 / me=tesa / subme=11 / psy=1 / psy_rd=1.00:0.10 / mixed_ref=1 / me_range=32 / chroma_me=1 / trellis=2 / 8x8dct=1 / cqm=0 / deadzone=21,11 / fast_pskip=0 / chroma_qp_offset=-3 / threads=12 / lookahead_threads=1 / sliced_threads=0 / nr=0 / decimate=0 / interlaced=0 / bluray_compat=0 / constrained_intra=0 / bframes=3 / b_pyramid=2 / b_adapt=2 / b_bias=0 / direct=3 / weightb=1 / open_gop=0 / weightp=2 / keyint=240 / keyint_min=23 / scenecut=40 / intra_refresh=0 / rc_lookahead=60 / rc=2pass / mbtree=1 / bitrate=7818 / ratetol=1.0 / qcomp=0.60 / qpmin=0 / qpmax=69 / qpstep=4 / cplxblur=20.0 / qblur=0.5 / ip_ratio=1.40 / aq=1:1.00
Language : English
Default : Yes
Forced : No

Audio #1
ID : 2
Format : AC-3
Format/Info : Audio Coding 3
Mode extension : CM (complete main)
Format settings, Endianness : Big
Codec ID : A_AC3
Duration : 2h 24mn
Bit rate mode : Constant
Bit rate : 384 Kbps
Channel(s) : 6 channels
Channel positions : Front: L C R, Side: L R, LFE
Sampling rate : 48.0 KHz
Bit depth : 16 bits
Compression mode : Lossy
Stream size : 398 MiB (4%)
Title : DVO 1+1 5.1 384 kbps [Hurtom-_oles]
Language : Ukrainian
Default : Yes
Forced : No

Audio #2
ID : 3
Format : AC-3
Format/Info : Audio Coding 3
Mode extension : CM (complete main)
Format settings, Endianness : Big
Codec ID : A_AC3
Duration : 2h 24mn
Bit rate mode : Constant
Bit rate : 640 Kbps
Channel(s) : 6 channels
Channel positions : Front: L C R, Side: L R, LFE
Sampling rate : 48.0 KHz
Bit depth : 16 bits
Compression mode : Lossy
Stream size : 663 MiB (7%)
Title : Original
Language : English
Default : No
Forced : No

Text #1
ID : 4
Format : UTF-8
Codec ID : S_TEXT/UTF8
Codec ID/Info : UTF-8 Plain Text
Title : Ukr forced
Language : Ukrainian
Default : Yes
Forced : Yes

Text #2
ID : 5
Format : UTF-8
Codec ID : S_TEXT/UTF8
Codec ID/Info : UTF-8 Plain Text
Title : Ukr full
Language : Ukrainian
Default : No
Forced : No

Text #3
ID : 6
Format : UTF-8
Codec ID : S_TEXT/UTF8
Codec ID/Info : UTF-8 Plain Text
Title : Eng full [SDH]
Language : English
Default : No
Forced : No

Menu
00:00:00.000 : en:Main Titles
00:03:42.972 : en:Crash Landing
00:04:31.477 : en:One Survivor?
00:09:29.693 : en:The Facts
00:12:13.398 : en:The Sleeper Awakens
00:15:01.442 : en:Inspecting the Ship
00:16:33.701 : en:A Possible Contagion
00:24:27.922 : en:What Killed Babe?
00:26:31.755 : en:A New Beginning
00:31:07.739 : en:Disharmony
00:33:12.824 : en:New Temptation
00:35:53.150 : en:Attracted in That Way
00:37:43.260 : en:Diced
00:43:32.735 : en:The Flight Recorder
00:46:11.268 : en:High Priority
00:49:15.284 : en:A Re-Education
00:51:46.811 : en:Candlelight Dinner
00:55:52.056 : en:Bishop Speaks
00:59:33.318 : en:Discussing the Dragon
01:02:51.434 : en:A Long, Sad Story
01:07:33.256 : en:"It's Here!"
01:11:03.634 : en:Who's In Charge
01:14:12.823 : en:The Plan
01:17:08.872 : en:Preparations
01:19:05.698 : en:Wait for the Signal
01:24:41.033 : en:They Don't Want to Kill It
01:26:19.506 : en:Cut Loose
01:28:02.859 : en:Permission Denied
01:29:09.926 : en:Alien Unbound
01:34:12.770 : en:Under the Scanner
01:37:18.707 : en:Better Get Prepared
01:39:29.253 : en:A Classified Code
01:42:47.452 : en:In the Basement
01:46:07.444 : en:It Has to Die
01:49:57.715 : en:Plan B
01:54:04.796 : en:One Chance
01:56:30.024 : en:It Started
01:58:32.896 : en:Improvising
02:05:23.806 : en:Ripley & the Beast
02:08:09.180 : en:In the Mold
02:10:50.175 : en:Time for a Cold Shower
02:12:42.912 : en:Never Trust a Bishop
02:16:18.461 : en:Ripley's Choice
02:19:09.966 : en:End Titles
Чужий 4. Воскресіння (Спеціальне видання) / Alien. Resurrection (2003 Special Edition) (1997) 1080p Ukr/Eng | Sub Ukr/Eng

Чужий 4. Воскресіння (Спеціальне видання) / Alien. Resurrection (2003 Special Edition) (1997) 1080p Ukr/Eng | Sub Ukr/Eng


Альтернативні постери
Чужий: Антологія / Alien Anthology [Director's Cut/Special Edition] (1979/1986/1992/1997) 1080p Ukr/Eng | Sub Ukr/Eng



Жанр: жахи, фантастика, бойовик, трилер
Країна: США



Кіностудія / кінокомпанія: Twentieth Century-Fox Productions, Brandywine Productions
Режисер: Жан-П'єр Жене / Jean-Pierre Jeunet
Актори: Сіґурні Вівер / Sigourney Weaver, Вайнона Райдер / Winona Ryder, Домінік Пінон / Dominique Pinon, Рон Перлман / Ron Perlman, Ґарі Дордан / Gary Dourdan та інші.

Сюжет:
У далекому майбутньому вченi, якi марять iдеальною бiологiчною зброєю, вирiшують воскресити кровожерне iнопланетне чудовисько, яке, пожертвувавши собою, багато рокiв тому знищила лейтенант Елен Рiплi. Необережнi винахiдники, використовуючи кiлька крапель кровi жiнки, клонують Рiплi разом з монстром. Однак генетики щось не врахували, тому що у склонованої Рiплi з'являються деякi якостi "чужого", а саме чудовисько поступово стає людиноподiбним. Проте це не заважає йому стати загрозою життя усiх мешканцiв космiчноi станцii. Рiплi, як завжди, починаe боротьбу з монстром, їй допомагають дiвчина та група космiчних найманцiв...


рейтинг MPAA: R - особам до 17 років обов'язкова присутність батьків або дорослого опікуна
Вікова категорія: 16+

Тривалість: 01:56:09 Порівняння Спеціального видання та Театральної версії
Якість: 1080p
Відео:
кодек:
розмір кадру: 1920х820
бітрейт: 10998 кб/с

Аудіо # 1: (є неперекладені моменти, на них є субтитри)
мова: українська
переклад: двоголосий закадровий
кодек: 5.1
бітрейт: 384 кб/с

Аудіо # 2:
мова: англійська
переклад: оригінал
кодек: 5.1
бітрейт: 640 кб/с

Субтитри # 1:
мова: українська (форсовані, для моментів без перекладу)
тип: програмні (м'які)
формат: *.srt

Субтитри # 2:
мова: українська (повні)
тип: програмні (м'які)
формат: *.srt

Субтитри # 3:
мова: англійська (SDH)
тип: програмні (м'які)
формат: *.srt

Збережено оригінальні розділи, як на Blu-ray
/ MediaInfo
[info]: frame I:1417 Avg QP:16.79 size:133667
[info]: frame P:54949 Avg QP:19.78 size: 74317
[info]: frame B:110713 Avg QP:20.79 size: 47892

General
Unique ID : 176419791133821802498869257315047366607 (0x84B937421FA7EB5C9E50592ED896DFCF)
Complete name : Alien.Anthology.DC&SE.1979-97..1080p.Ukr.Eng\4.Alien.Resurrection.SE.1997..1080p.Ukr.Eng.mkv
Format : Matroska
Format version : Version 4 / Version 2
File size : 9.75 GiB
Duration : 1h 56mn
Overall bit rate : 12.0 Mbps
Movie name : Чужий 4. Воскресіння / Alien. Resurrection (Special Edition) / Чужой 4: Воскрешение
Encoded date : UTC 2013-04-11 14:32:08
Writing application : mkvmerge v6.1.0 ('Old Devil') built on Mar 2 2013 14:32:37
Writing library : libebml v1.3.0 + libmatroska v1.4.0

Video
ID : 1
Format : AVC
Format/Info : Advanced Video Codec
Format profile : [email protected]
Format settings, CABAC : Yes
Format settings, ReFrames : 5 frames
Codec ID : V_MPEG4/ISO/AVC
Duration : 1h 56mn
Bit rate : 11.0 Mbps
Width : 1 920 pixels
Height : 820 pixels
Display aspect ratio : 2.35:1
Frame rate mode : Constant
Frame rate : 23.976 fps
Color space : YUV
Chroma subsampling : 4:2:0
Bit depth : 8 bits
Scan type : Progressive
Bits/(Pixel*Frame) : 0.291
Stream size : 8.73 GiB (89%)
Title : Чужий 4. Воскресіння / Alien. Resurrection (Special Edition) / Чужой 4: Воскрешение, rip by K.A.F.
Writing library : core 130 r2273 b3065e6
Encoding settings : cabac=1 / ref=5 / deblock=1:-3:-3 / analyse=0x3:0x133 / me=tesa / subme=11 / psy=1 / psy_rd=1.00:0.08 / mixed_ref=1 / me_range=32 / chroma_me=1 / trellis=2 / 8x8dct=1 / cqm=0 / deadzone=21,11 / fast_pskip=0 / chroma_qp_offset=-3 / threads=12 / lookahead_threads=1 / sliced_threads=0 / nr=0 / decimate=0 / interlaced=0 / bluray_compat=0 / constrained_intra=0 / bframes=3 / b_pyramid=2 / b_adapt=2 / b_bias=0 / direct=3 / weightb=1 / open_gop=0 / weightp=2 / keyint=240 / keyint_min=23 / scenecut=40 / intra_refresh=0 / rc_lookahead=60 / rc=2pass / mbtree=1 / bitrate=10998 / ratetol=1.0 / qcomp=0.60 / qpmin=0 / qpmax=69 / qpstep=4 / cplxblur=20.0 / qblur=0.5 / ip_ratio=1.40 / aq=1:1.00
Language : English
Default : Yes
Forced : No

Audio #1
ID : 2
Format : AC-3
Format/Info : Audio Coding 3
Mode extension : CM (complete main)
Format settings, Endianness : Big
Codec ID : A_AC3
Duration : 1h 56mn
Bit rate mode : Constant
Bit rate : 384 Kbps
Channel(s) : 6 channels
Channel positions : Front: L C R, Side: L R, LFE
Sampling rate : 48.0 KHz
Bit depth : 16 bits
Compression mode : Lossy
Stream size : 319 MiB (3%)
Title : DVO 1+1 5.1 384 kbps [Hurtom-_oles]
Language : Ukrainian
Default : Yes
Forced : No

Audio #2
ID : 3
Format : AC-3
Format/Info : Audio Coding 3
Mode extension : CM (complete main)
Format settings, Endianness : Big
Codec ID : A_AC3
Duration : 1h 56mn
Bit rate mode : Constant
Bit rate : 640 Kbps
Channel(s) : 6 channels
Channel positions : Front: L C R, Side: L R, LFE
Sampling rate : 48.0 KHz
Bit depth : 16 bits
Compression mode : Lossy
Stream size : 532 MiB (5%)
Title : Original
Language : English
Default : No
Forced : No

Text #1
ID : 4
Format : UTF-8
Codec ID : S_TEXT/UTF8
Codec ID/Info : UTF-8 Plain Text
Title : Ukr Forced
Language : Ukrainian
Default : Yes
Forced : Yes

Text #2
ID : 5
Format : UTF-8
Codec ID : S_TEXT/UTF8
Codec ID/Info : UTF-8 Plain Text
Title : Ukr Full
Language : Ukrainian
Default : No
Forced : No

Text #3
ID : 6
Format : UTF-8
Codec ID : S_TEXT/UTF8
Codec ID/Info : UTF-8 Plain Text
Title : Eng full
Language : English
Default : No
Forced : No

Menu
00:00:00.000 : en:Main Titles
00:03:27.330 : en:Usm Auriga
00:04:26.307 : en:Born Again
00:06:30.139 : en:Number 8
00:08:49.278 : en:An Unexpected Benefit
00:12:06.224 : en:Memories
00:15:03.527 : en:The Betty
00:19:25.538 : en:The Cargo Arrives
00:21:37.836 : en:The Deal
00:24:12.866 : en:Hosts
00:26:19.993 : en:A Little One-on-One
00:30:08.765 : en:Today's Lesson
00:32:19.560 : en:Snooping Around
00:37:16.692 : en:Caught
00:39:26.739 : en:The Escape
00:42:36.679 : en:"Evacuation."
00:46:30.661 : en:"Evacuation incomplete."
00:49:20.791 : en:Ripley Comes Through
00:53:35.378 : en:Finding a Way Out
00:57:04.963 : en:A Waste of Ammo
01:03:01.652 : en:"He's got one inside of him."
01:07:40.430 : en:A Trap
01:19:37.145 : en:Call's Secret
01:22:07.296 : en:Connecting at the Chapel
01:28:21.421 : en:Into the Nest
01:31:45.916 : en:Sharing the Monster
01:34:15.524 : en:A New Baby
01:38:58.390 : en:Racing to the Betty
01:40:45.537 : en:Closing the Hatch
01:43:49.845 : en:Under Pressure
01:47:52.296 : en:"I'm a stranger here myself."
01:49:51.417 : en:End Titles
Джерела та подяки: ріп відео, оригінальні доріжки та субтитри - K.A.F. (рутор), джерела для ріпів - BD-Remux'и з HDClub'а, українські доріжки та субтитри, опис - _oles, запис з ТБ - olgaya, Romario_O, robotron005, Merdiff), джерело українських субтитрів - SDІ Меdіа Grоuр (DVD R5), українські постери - thefir (всі - Гуртом).

Особиста оцінка: 10 - без зайвих вагань рекомендую всім! Класика жахів та фантастики!
Для фанатів: За лаштунками знімального майданчика


всі фото клікабельні


Срібний реліз (на рейтинг впливає 50% завантаженого)
 Трекер:    Зареєстрований   

Завантажити / скачати фільм українською



відео для новачків



 Зареєстрований:   2013-04-11 19:47
 Розмір:   40.3 GB 
 Оцінка фільму:   8/10 (Голосів: 46)
   
Anonymous 







2013-04-11 19:50  
ЗАЛИШАЙТЕСЬ ЯКОМОГА ДОВШЕ НА РОЗДАЧІ !
СКАЧАВ САМ - ДАЙ СКАЧАТИ ІНШИМ

ХОРОБРЕ СЕРЦЕ 
Частий відвідувач


З нами з: 24.06.11
Востаннє: 08.11.16
Повідомлень: 49

2013-04-11 21:02  
А буде реліз на 1080р, але так щоб вміщався на один двд 9???
Anonymous 







2013-04-11 21:05  
Напевно, ні. Не пройде по нових правилах розділу HD.
ХОРОБРЕ СЕРЦЕ 
Частий відвідувач


З нами з: 24.06.11
Востаннє: 08.11.16
Повідомлень: 49

2013-04-11 21:06  
шкода(((( а то так файно було б на один диск змістити=)
Anonymous 







2013-04-11 21:30  
Для порівняння:
Оригінальне 6-дискове видання на HDClub'і = 259 ГБ,
BD-Remux'и там же - 183 Гб,
720p реліз там же - 60 Гб.
Тут, при найвищих налаштуваннях кодування --> найкращій якості, всього 40 Гб.

Якщо ж вам будь-що треба записати цей реліз на диски - за допомогою mkvmerge (з MKVToolNix) розпиляйте файли під розмір дисків (ще можна відрізати англ.звук).

Tenax555 
Свій


З нами з: 26.08.09
Востаннє: 03.12.16
Повідомлень: 95

2013-04-12 01:28  
Класика жанру.
Особисто собі всеж зремуксив с укр. дорогою в колекцію.
Доречі російський дубляж зробили дуже непогано, нажаль українського такого-ж рівня немає.

ВТО 
Частий відвідувач


З нами з: 05.05.11
Востаннє: 24.09.16
Повідомлень: 27

2013-06-06 20:50  
Російського озвучування багато є, а українського один, і той у режисерській версії неповний.
Що не можна зробити до озвучування у режисерських версіях ?
На Гуртом можна озвучити.

Віктор 
Відео Гуртом - субтитрування
Відео Гуртом - субтитрування


З нами з: 09.01.10
Востаннє: 04.12.16
Повідомлень: 8663

2013-06-06 21:06  
ВТО написано:

Російського дубляжу багато є, а українського один, і той не добрий.
Що не можна зробити професійний дубляж?
На Гуртом можна озвучити.


Дубляж, взагалі-то, робиться для дітей, а справжні цінителі кіно і якісного перекладу завжди нададуть перевагу закадрову озвученню, і тут переклад чудовий.
У вас є 50 штук на дубляж? Замовляйте, а як ні, гуляйте.

Anonymous 







2013-06-06 21:10  
Звідки ви взяли, що українська озвучка погана? Цілком пристойна. Тим більше від 1+1 - класика укр.озвучки.
ratbol 
Модератор HD


З нами з: 03.02.09
Востаннє: 01.12.16
Повідомлень: 1088

2013-06-06 22:17  
Віктор написано:
Дубляж, взагалі-то, робиться для дітей

Дуже жирно нашим діточкам живеться Wide grin

ВТО 
Частий відвідувач


З нами з: 05.05.11
Востаннє: 24.09.16
Повідомлень: 27

2013-06-11 17:13  
Озвучка добра, але недоозвучена.
Для класики жанру можна зробити краще.

Anonymous 







2013-06-11 17:26  
ВТО написано:
Озвучка добра, але недоОзвучена.

Качайте Театральні версії - там все озвучено Happy

ВТО 
Частий відвідувач


З нами з: 05.05.11
Востаннє: 24.09.16
Повідомлень: 27

2013-06-11 17:57  
Режисерська версія - це повне видання?
Театральна версія - урізана?
Спеціальне видання -?
Дякую за відповідь.

Anonymous 







2013-06-11 18:19  
До кожної частини я не полінився і навів лінки на порівняння різних версій фільму - можете глянути їх, вони виділені синім шрифтом Wink (1)
Я знаю, що вони різні - деяки сцени видалені, деякі додані.

ВТО 
Частий відвідувач


З нами з: 05.05.11
Востаннє: 24.09.16
Повідомлень: 27

2013-06-11 18:30  
Оригінальне 6-дискове видання на HDClub'і = 259 ГБ, можна українську озвучку туди добавити і викласти на роздачу.
Anonymous 







2013-06-11 18:43  
Авжеж, можна. Займетесь цим? Заодно собі рейтинг піднімете на пристойний рівень, бо зараз ви навіть цей реліз не зможете скачати.
ВТО 
Частий відвідувач


З нами з: 05.05.11
Востаннє: 24.09.16
Повідомлень: 27

2013-06-11 19:37  
Як озвучку добавити в антологію.
Anonymous 







2013-06-11 19:44  
В інтернеті є інструкції
Deluxeman 
Localize Team
Localize Team


З нами з: 31.10.09
Востаннє: 04.12.16
Повідомлень: 1604

2014-04-11 06:18  
Poster

Код:
[imgalt]http://toloka.to/photos/14041107173346226_f0_0.png[/imgalt]

Чужий: Антологія / Alien Anthology [Director's Cut/Special Edition] (1979/1986/1992/1997) 1080p Ukr/Eng | Sub Ukr/Eng

Ваш часовий пояс: GMT + 2 Години

Нова тема   Відповісти