Завантажити та скачати торренти українською


Юлія Рома - Радуйся. Українські колядки та щедрівки (2011) [FLAC] | Jazz

Нові коментарі

Нова тема   Відповісти
Автор Повідомлення
Anonymous 







2013-04-08 19:41  
Юлія Рома - Радуйся. Українські колядки та щедрівки (2011) [FLAC] | Jazz

Юлія Рома - Радуйся. Українські колядки та щедрівки (2011) [FLAC] | Jazz


Стиль: Folk Jazz
Країна, місто: Україна, Київ
Сайти: Офіційний сайт
Видавець: Comp Music Ltd
Виконавці:
Юлія Рома - вокал
Наталія Лебедєва - клавішні
Костянтин Іоненко - бас-гітара
Алік Фантаєв - барабани

Пісні:
    1. Добрий вечір тобі, пане господарю (народна)
    2. Ой, сивая та і зозуленька (народна)
    3. Ой, чи є, чи нема пан господар дома? (народна)
    4. Павочка ходить (народна)
    5. Ой учора, ізвечора (народна)
    6. Колядка (попурі з народних колядок)
    7. Зажурилася крутая гора (народна)
    8. Нова радість стала (народна)
    9. Щедрик-щедрик (народна)
    10. Пролунав спів ангелів (народна)
log
Exact Audio Copy V1.0 beta 3 from 29. August 2011

Отчёт EAC об извлечении, выполненном 8. апреля 2013, 20:03

Yuliya Roma / Rejoice. Ukrainian carols

Дисковод: TSSTcorpCDDVDW TS-L633A Adapter: 0 ID: 1

Режим чтения : Достоверность
Использование точного потока : Да
Отключение кэша аудио : Да
Использование указателей C2 : Нет

Коррекция смещения при чтении : 6
Способность читать области Lead-in и Lead-out : Нет
Заполнение пропущенных сэмплов тишиной : Да
Удаление блоков с тишиной в начале и конце : Нет
При вычислениях CRC использовались нулевые сэмплы : Да
Интерфейс : Встроенный Win32-интерфейс для Win NT/2000

Выходной формат : Внутренние WAV-операции
Формат сэмплов : 44.100 Гц; 16 бит; стерео

TOC извлечённого CD

Трек | Старт | Длительность | Начальный сектор | Конечный сектор
---------------------------------------------------------------------
1 | 0:00.00 | 6:45.11 | 0 | 30385
2 | 6:45.11 | 5:22.42 | 30386 | 54577
3 | 12:07.53 | 5:11.50 | 54578 | 77952
4 | 17:19.28 | 3:44.62 | 77953 | 94814
5 | 21:04.15 | 5:32.69 | 94815 | 119783
6 | 26:37.09 | 3:16.42 | 119784 | 134525
7 | 29:53.51 | 4:38.66 | 134526 | 155441
8 | 34:32.42 | 5:37.65 | 155442 | 180781
9 | 40:10.32 | 6:07.26 | 180782 | 208332
10 | 46:17.58 | 7:49.22 | 208333 | 243529

Характеристики диапазона извлечения и сообщения об ошибках

Выбранный диапазон

Имя файла C:\Users\toshiba\Downloads\RelizyZ11\Yuliya Roma - Rejoice. Ukrainian carols (2011) [FLAC]\Yuliya Roma - Rejoice. Ukrainian carols.wav

Пиковый уровень 100.0 %
Скорость извлечения 3.6 X
Качество диапазона 100.0 %
CRC копии 5B60F7D2
Копирование... OK

Ошибок не произошло

AccurateRip: сводка

Трек 1 отсутствует в базе данных
Трек 2 отсутствует в базе данных
Трек 3 отсутствует в базе данных
Трек 4 отсутствует в базе данных
Трек 5 отсутствует в базе данных
Трек 6 отсутствует в базе данных
Трек 7 отсутствует в базе данных
Трек 8 отсутствует в базе данных
Трек 9 отсутствует в базе данных
Трек 10 отсутствует в базе данных

Ни одного трека нет в базе AccurateRip

Конец отчёта

---- CUETools DB Plugin V2.1.3

[CTDB TOCID: ZRIIV0PWIESZYZ07rEvvF5D4PYM-] found, Submit result: ZRIIV0PWIESZYZ07rEvvF5D4PYM- has been confirmed
[d9c29480] (1/1) Accurately ripped
Log Audiochecker
AUDIOCHECKER v2.0 beta (build 457) - by Dester - [email protected]
~~~~~~~~~~~~~~~~~~~~~~~~~~~~~~~~~~

Started at: воскресенье, 08. 04. 2013. - 20:23.57
1 file found

1 -===- C:\...Yuliya Roma - Rejoice. Ukrainian carols (2011) [FLAC]\Yuliya Roma - Rejoice. Ukrainian carols.flac
Extracted successfully
Conclusion: this track is CDDA with probability 92%
Tempfile successfully deleted.

Finished at: воскресенье, 08. 04. 2013. - 20:30.49 (operation time: 0:06.51)
Тривалість: 00:54:07
Мова: українська
Аудіо-кодек: FLAC
Бітрейт: 870 кб/с
Джерело: власний ріп з диску
Тип ріпу: image + cue + обкладинки
Додаткова інформація:
Як не дивно, дотепер в дискографії українського джазу було лише два альбоми з різдвяно-новорічною музикою (від гуртів ManSound та ShockolaD). Приємно, що Юлія Рома вирішила долучитися до заповнення цієї лакуни – і зробила це, ясна річ, якісно. Власне, іншого не варт було і чекати – з таким досвідом, з такими музикантами... Причому, саме з огляду на досвід і зіграність – мабуть, великою була спокуса вдатися до беззастережних експериментів (і без них, звичайно, таки не обійшлося). Але перевагу – надано якраз спробі зберегти самобутність і красу кожної пісні. Збагатити їх сучасними барвами, не зруйнувавши тонких шляхів світлої радості, притаманних саме колядкам і щедрівкам – завдання не з простих. Бо потребує великої уваги і толерантності. Зрештою, потребує просто любові до цієї музики, до цього коріння – і любові творчої. І, схоже – вдалося.


Якщо Ви справді бажаєте підтримати українське - після прослуховування, якщо музика вам сподобалась,
придбайте ліцензійний диск.
Підтримаймо вітчизняних виконавців!


Срібний реліз (на рейтинг впливає 50% завантаженого)
 Трекер:    Зареєстрований   

Завантажити / скачати українську музику



відео для новачків



 Зареєстрований:   2013-04-08 19:41
 Розмір:   338 MB 
 Оцінка музики:   9.9/10 (Голосів: 9)
   
Ваш часовий пояс: GMT + 2 Години

Нова тема   Відповісти