Завантажити та скачати торренти українською


Список Шиндлера / Schindler's List (1993) 720p 3xUkr/Eng | Sub Eng

Нові коментарі

Нова тема   Відповісти
Автор Повідомлення
ratbol 
Модератор HD


З нами з: 03.02.09
Востаннє: 05.12.16
Повідомлень: 1088

2013-04-08 15:13  
Список Шиндлера / Schindler's List (1993) 720p 3xUkr/Eng | Sub Eng

Список Шиндлера / Schindler's List (1993) 720p 3xUkr/Eng | Sub Eng


Жанр: біографічний, драма, історичний, воєнний
Країна: США



Кіностудія / кінокомпанія: Universal Pictures, Amblin Entertainment
Режисер: Стівен Спілберґ
Актори: Лайам Нісон, Бен Кінґслі, Рейф Файнс, Керолайн Ґудолл, Джонатан Саґал, Ембет Девідц, Малґозата Ґебел та інші
Рейтинг MPAA: (дітям до 17 років обов'язкова присутність батьків або дорослого опікуна)

Сюжет:
Стрічка розповідає реальну історію загадкового Оскара Шиндлера, члена нацистської партії, успішного промисловця, який врятував під час Другої Світової війни більше тисячі ста євреїв. Це тріумф однієї людини, не схожої на інших, і драма тих, хто, завдяки йому, вижив в жахливий період людської історії.


Тривалість: 03:15:12
Якість: 720p
Відео:
кодек:
розмір кадру: 1280 х 692
бітрейт: 7286 кб/с

Аудіо # 1:
мова: українська
переклад: багатоголосий закадровий | запис з 1+1
кодек: 2.0
бітрейт: 192 кб/с
Про озвучення
Ролі озвучили: Лайам Нісон — Олег Лепенець, Владислав Пупков, Бен Кінґслі — Андрій Бурлуцький і Тетяна Антонова?
Аудіо # 2:
мова: українська
переклад: двоголосий закадровий | запис з Інтера
кодек: 2.0
бітрейт: 192 кб/с
Про озвучення
Аудіо # 3:
мова: українська
переклад: багатоголосий закадровий | запис з ICTV
кодек: 2.0 (стерео)
бітрейт: 192 кб/с Аудіо # 4:
мова: англійська
переклад: оригінал
кодек: 5.1
бітрейт: 1536 кб/с

Субтитри:
мова: англійська
тип: програмні (м'які)
формат: *.srt

Оригінальні розділи:
Збережено

MediaInfo
General
Unique ID : 190046592192862346298143988813958123957 (0x8EF9A46C05DB52988E23E4D2184291B5)
Complete name : F:\Schindler's List (1993) [3xUkr, Eng. Sub Eng] 720p [Hurtom].mkv
Format : Matroska
Format version : Version 4 / Version 2
File size : 12.8 GiB
Duration : 3h 15mn
Overall bit rate : 9 374 Kbps
Movie name : Schindler's List (1993) [Hurtom]
Encoded date : UTC 2013-04-09 08:11:33
Writing application : mkvmerge v6.1.0 ('Old Devil') built on Mar 2 2013 14:32:37
Writing library : libebml v1.3.0 + libmatroska v1.4.0

Video
ID : 1
Format : AVC
Format/Info : Advanced Video Codec
Format profile : [email protected]
Format settings, CABAC : Yes
Format settings, ReFrames : 9 frames
Codec ID : V_MPEG4/ISO/AVC
Duration : 3h 15mn
Bit rate : 7 286 Kbps
Width : 1 280 pixels
Height : 692 pixels
Display aspect ratio : 1.85:1
Frame rate mode : Constant
Frame rate : 23.976 fps
Color space : YUV
Chroma subsampling : 4:2:0
Bit depth : 8 bits
Scan type : Progressive
Bits/(Pixel*Frame) : 0.343
Stream size : 9.68 GiB (76%)
Title : WiKi!
Writing library : core 129 r2230+696+36 4446aa2 tMod+MixAQ [[email protected]:2:0 X86]
Encoding settings : cabac=1 / ref=9 / deblock=1:-3:-3 / analyse=0x3:0x133 / me=umh / subme=11 / psy=1 / fade_compensate=0.00 / psy_rd=1.05:0.10 / mixed_ref=1 / me_range=64 / chroma_me=0 / trellis=2 / 8x8dct=1 / cqm=0 / deadzone=21,11 / fast_pskip=0 / chroma_qp_offset=-3 / threads=12 / lookahead_threads=2 / sliced_threads=0 / nr=0 / decimate=1 / interlaced=0 / bluray_compat=0 / constrained_intra=0 / fgo=0 / bframes=10 / b_pyramid=2 / b_adapt=2 / b_bias=0 / direct=3 / weightb=1 / open_gop=0 / weightp=2 / keyint=250 / keyint_min=23 / scenecut=40 / intra_refresh=0 / rc=2pass / mbtree=0 / bitrate=7286 / ratetol=1.0 / qcomp=0.70 / qpmin=0 / qpmax=69 / qpstep=4 / cplxblur=20.0 / qblur=0.5 / ip_ratio=1.40 / pb_ratio=1.30 / aq=1 / aq-strength=0.85 / aq-sensitivity=10.00 / aq-ifactor=1.00 / aq-pfactor=1.00 / aq-bfactor=1.00 / aq2=0 / zones=0,2272,chroma-me=1/98098,98318,chroma-me=1/98422,98652,chroma-me=1/98765,98900,chroma-me=1/99003,99159,chroma-me=1/99343,99510,chroma-me=1/99719,100056,chroma-me=1/100465,100658,chroma-me=1/100687,100770,chroma-me=1/101122,101251,chroma-me=1/195597,195763,chroma-me=1/243591,243879,chroma-me=1/244650,245083,chroma-me=1/266217,271667,chroma-me=1
Language : English
Default : Yes
Forced : No

Audio #1
ID : 2
Format : AC-3
Format/Info : Audio Coding 3
Mode extension : CM (complete main)
Format settings, Endianness : Big
Codec ID : A_AC3
Duration : 3h 15mn
Bit rate mode : Constant
Bit rate : 192 Kbps
Channel(s) : 2 channels
Channel positions : Front: L R
Sampling rate : 48.0 KHz
Bit depth : 16 bits
Compression mode : Lossy
Stream size : 268 MiB (2%)
Title : 2.0 [192 Kbps] — багатоголосий закадровий | 1+1
Language : Ukrainian
Default : Yes
Forced : No

Audio #2
ID : 3
Format : AC-3
Format/Info : Audio Coding 3
Mode extension : CM (complete main)
Format settings, Endianness : Big
Codec ID : A_AC3
Duration : 3h 15mn
Bit rate mode : Constant
Bit rate : 192 Kbps
Channel(s) : 2 channels
Channel positions : Front: L R
Sampling rate : 48.0 KHz
Bit depth : 16 bits
Compression mode : Lossy
Stream size : 268 MiB (2%)
Title : 2.0 [192 Kbps] — двоголосий закадровий | Інтер
Language : Ukrainian
Default : No
Forced : No

Audio #3
ID : 4
Format : AC-3
Format/Info : Audio Coding 3
Mode extension : CM (complete main)
Format settings, Endianness : Big
Codec ID : A_AC3
Duration : 3h 15mn
Bit rate mode : Constant
Bit rate : 192 Kbps
Channel(s) : 2 channels
Channel positions : Front: L R
Sampling rate : 48.0 KHz
Bit depth : 16 bits
Compression mode : Lossy
Stream size : 268 MiB (2%)
Title : 2.0 Stereo [192 Kbps] — багатоголосий закадровий | ICTV
Language : Ukrainian
Default : No
Forced : No

Audio #4
ID : 5
Format :
Format/Info : Digital Theater Systems
Mode : 16
Format settings, Endianness : Big
Codec ID : A_DTS
Duration : 3h 15mn
Bit rate mode : Constant
Bit rate : 1 509 Kbps
Channel(s) : 6 channels
Channel positions : Front: L C R, Side: L R, LFE
Sampling rate : 48.0 KHz
Bit depth : 24 bits
Compression mode : Lossy
Stream size : 2.06 GiB (16%)
Title : 5.1 [1536 Kbps] — оригінал
Language : English
Default : No
Forced : No

Text
ID : 6
Format : UTF-8
Codec ID : S_TEXT/UTF8
Codec ID/Info : UTF-8 Plain Text
Language : English
Default : No
Forced : No

Menu
00:00:00.000 : en:00:00:00.000
00:03:23.161 : en:00:03:23.161
00:10:12.153 : en:00:10:12.153
00:14:51.307 : en:00:14:51.307
00:17:28.714 : en:00:17:28.714
00:21:42.384 : en:00:21:42.384
00:23:48.010 : en:00:23:48.010
00:30:37.669 : en:00:30:37.669
00:34:23.728 : en:00:34:23.728
00:41:43.751 : en:00:41:43.751
00:44:16.737 : en:00:44:16.737
00:50:55.761 : en:00:50:55.761
00:55:09.431 : en:00:55:09.431
00:56:44.860 : en:00:56:44.860
01:13:44.754 : en:01:13:44.754
01:17:05.704 : en:01:17:05.704
01:26:02.115 : en:01:26:02.115
01:29:26.319 : en:01:29:26.319
01:32:01.182 : en:01:32:01.182
01:38:36.869 : en:01:38:36.869
01:43:19.777 : en:01:43:19.777
01:49:36.612 : en:01:49:36.612
01:55:45.981 : en:01:55:45.981
01:58:42.824 : en:01:58:42.824
02:02:59.789 : en:02:02:59.789
02:06:49.310 : en:02:06:49.310
02:10:11.637 : en:02:10:11.637
02:13:44.725 : en:02:13:44.725
02:18:21.376 : en:02:18:21.376
02:26:46.506 : en:02:26:46.506
02:34:15.621 : en:02:34:15.621
02:38:48.018 : en:02:38:48.018
02:41:15.416 : en:02:41:15.416
02:46:21.763 : en:02:46:21.763
02:48:12.332 : en:02:48:12.332
02:50:23.171 : en:02:50:23.171
02:55:28.393 : en:02:55:28.393
03:01:51.359 : en:03:01:51.359
03:05:06.721 : en:03:05:06.721
03:08:51.278 : en:03:08:51.278
Скріншоти








Цитата:
• За запис сирого звуку з ТБ для доріжки №1 подяка ProgBassing, RB26DETT, для доріжки №2 — подяка Tanat13, для доріжки №3 — подяка andic, Technomate.
• За синхронізацію українських доріжок подяка karvai0.
• За українізацію постера подяка thefir.
• За фільмографії акторів подяка Віктору.
ratbol — запис сирого звуку для доріжки №3, HD версія.
• Відеоріп від WiKi!.
• У доріжці від Інтера є 2 короткі вставки з 1+1.


Джерело: &


Срібний реліз (на рейтинг впливає 50% завантаженого)
 Трекер:    Зареєстрований   

Завантажити / скачати фільм українською



відео для новачків



 Зареєстрований:   2013-04-09 10:32
 Розмір:   12.78 GB 
 Оцінка фільму:   9.4/10 (Голосів: 29)
   
Інші релізи
leroykendall 
Модератор HD


З нами з: 03.01.11
Востаннє: 20.11.16
Повідомлень: 749

2013-04-09 21:07  
Нарешті блюрик вийшов.
Це справді круто. Дякую.

Джерх 
Свій


З нами з: 17.03.12
Востаннє: 03.12.16
Повідомлень: 105

2013-04-09 21:35  
Був би менш пафосним - сподобався б суттєво більше. А так значно поступається "Піаністові".
mahnatui 
Новенький


З нами з: 18.08.11
Востаннє: 01.12.16
Повідомлень: 4

2013-04-18 08:31  
дуже сподобався!
waldi-hurtom 
VIP


З нами з: 07.10.12
Востаннє: 05.12.16
Повідомлень: 611

2013-05-11 20:27  
Фільм непоганий - жахи вдало розбавлені анекдотичними сценами. Правдивий фільм був би настільки жахливим, що його ніхто не зміг би дивитись. Як це відбувається з фільмами про Голодомор. Але біографічним цей фільм важко назвати. Наприклад, казкове фінансування - 350 низькокваліфікованих працівників на вбогому обладнанні з великими простоями не заробили б купу грошей на підкупи, ресторації та інші заходи. Вочевидь, жиди віддавали Шіндлеру свої скарби на це підприємство. Тут немає чого засуджувати, вони купували собі життя, мало хто міг би їм допомогти, але подібні сцени вряд чи зробили фільм привабливішим. Є ряд епізодів фантастично нереальних, ідеалізуючих або романтизуючих Шіндлера та жидів. Вдалий компроміс між правдою та майстерним шоу, який дозволив донести жахливу правду до широкого загалу. 8 балів
Maters 
VIP


З нами з: 27.03.12
Востаннє: 05.12.16
Повідомлень: 1159

2015-01-29 22:29  
дуже крутий фільм!
Ua.bos_01 
VIP


З нами з: 22.06.15
Востаннє: 05.12.16
Повідомлень: 1291

2015-08-14 23:34  
Дуже сильне на духовному та емоційному рівні кіно. Раджу до перегляду.
Ваш часовий пояс: GMT + 2 Години

Нова тема   Відповісти