Завантажити та скачати торренти українською


Супер Перці [Розширена версія] / Superbad [Unrated] (2007) 720p 2xUkr/Eng

Нові коментарі

Нова тема   Відповісти
Автор Повідомлення
Sando7 
Відео Гуртом - запис з ТБ
Відео Гуртом - запис з ТБ


З нами з: 04.05.09
Востаннє: 03.12.16
Повідомлень: 835

2013-04-04 14:44  
Супер Перці [Розширена версія] / Superbad [Unrated] (2007) 720p 2xUkr/Eng


Супер Перці [Розширена версія] / Superbad [Unrated] (2007) 720p 2xUkr/Eng


Жанр: Комедія
Країна: США



Кіностудія / кінокомпанія: SONY Pictures
Режисер: Ґреґ Моттола
Актори: Джона Гілл, Майкл Сера, Крістофер Мінц-Плассе, Білл Гадер, Сет Роґен

Сюжет:
Питання статевого дозрівання стоїть дуже гостро для двох нерозлучних друзів-невдах, що ж може їм допомогти добитися уваги до себе від дівчат, якщо до випуску лічені дні?! Хлопці вирішили підвищити свій авторитет у очах своїх ровесників, перетворившись із лохів у "крутих" хлопців. Для цього вони намагаються купити бухла на вечірку, на яку їх запросили знайомі дівчата.


Тривалість: 01:58:40
Якість: 720p
Відео:
кодек:
розмір кадру: 1280 х 688
бітрейт: ~4663 кб/с

Аудіо # 1:
мова: українська
переклад: професійний дубльований
кодек: 5.1
бітрейт: 384 кб/с

в місцях де не було перекладу вставлено звук з каналу Інтер

Аудіо # 2:
мова: українська
переклад: багатоголосий закадровий
кодек: 2.0 [STEREO]
бітрейт: 192 кб/с


Аудіо # 3:
мова: англійська
переклад: оригінал
кодек: 5.1
бітрейт: 640 кб/с
MediaInfo
Format : Matroska
Format version : Version 1
File size : 4.85 GiB
Duration : 1h 58mn
Overall bit rate : 5 853 Kbps
Encoded date : UTC 2013-04-04 12:04:14
Writing application : mkvmerge v2.4.1 ('Use Me') built on Dec 5 2008 18:30:05
Writing library : libebml v0.7.7 + libmatroska v0.8.1

Video
ID : 1
Format : AVC
Format/Info : Advanced Video Codec
Format profile : [email protected]
Format settings, CABAC : Yes
Format settings, ReFrames : 8 frames
Codec ID : V_MPEG4/ISO/AVC
Duration : 1h 58mn
Bit rate : 4 633 Kbps
Width : 1 280 pixels
Height : 688 pixels
Display aspect ratio : 1.85:1
Frame rate mode : Constant
Frame rate : 23.976 fps
Color space : YUV
Chroma subsampling : 4:2:0
Bit depth : 8 bits
Scan type : Progressive
Bits/(Pixel*Frame) : 0.219
Stream size : 3.75 GiB (77%)
Writing library : core 57 svn-699C
Encoding settings : cabac=1 / ref=5 / deblock=1:-3:-2 / analyse=0x1:0 / me=umh / fpel_cmp=sad / subme=7 / me-prepass=0 / brdo=1 / mixed_ref=1 / me_range=16 / chroma_me=1 / trellis=1 / 8x8dct=0 / cqm=2 / deadzone=21,11 / chroma_qp_offset=0 / threads=6 / nr=0 / decimate=1 / mbaff=0 / bframes=3 / b_pyramid=1 / b_adapt=1 / b_bias=0 / direct=1 / wpredb=1 / bime=1 / keyint=250 / keyint_min=25 / scenecut=40(pre) / rc=2pass / bitrate=4633 / ratetol=1.0 / rceq='blurCplx^(1-qComp)' / qcomp=0.60 / qpmin=10 / qpmax=51 / qpstep=4 / cplxblur=20.0 / qblur=0.5 / ip_ratio=1.40 / pb_ratio=1.30
Language : English
Default : Yes
Forced : No

Audio #1
ID : 2
Format : AC-3
Format/Info : Audio Coding 3
Mode extension : CM (complete main)
Format settings, Endianness : Big
Codec ID : A_AC3
Duration : 1h 58mn
Bit rate mode : Constant
Bit rate : 384 Kbps
Channel(s) : 6 channels
Channel positions : Front: L C R, Side: L R, LFE
Sampling rate : 48.0 KHz
Bit depth : 16 bits
Compression mode : Lossy
Stream size : 326 MiB (7%)
Title : dubliazh
Language : Ukrainian
Default : Yes
Forced : No

Audio #2
ID : 3
Format : AC-3
Format/Info : Audio Coding 3
Mode extension : CM (complete main)
Format settings, Endianness : Big
Codec ID : A_AC3
Duration : 1h 58mn
Bit rate mode : Constant
Bit rate : 192 Kbps
Channel(s) : 2 channels
Channel positions : Front: L R
Sampling rate : 48.0 KHz
Bit depth : 16 bits
Compression mode : Lossy
Stream size : 163 MiB (3%)
Title : INTER tv
Language : Ukrainian
Default : No
Forced : No

Audio #3
ID : 4
Format : AC-3
Format/Info : Audio Coding 3
Mode extension : CM (complete main)
Format settings, Endianness : Big
Codec ID : A_AC3
Duration : 1h 58mn
Bit rate mode : Constant
Bit rate : 640 Kbps
Channel(s) : 6 channels
Channel positions : Front: L C R, Side: L R, LFE
Sampling rate : 48.0 KHz
Bit depth : 16 bits
Compression mode : Lossy
Stream size : 543 MiB (11%)
Language : English
Default : No
Forced : No


Джерело:


 Трекер:    Зареєстрований   

Завантажити / скачати фільм українською



відео для новачків



 Зареєстрований:   2013-04-04 14:44
 Розмір:   4.85 GB 
 Оцінка фільму:   10/10 (Голосів: 13)
   
Інші релізи
   Супер Перці [Розширена версія] / Superbad [Unrated] (2007) 2xUkr/Eng Sando7  5 / 0   2.35 GB   2013-04-04 14:16 
   Супер Перці / Superbad (2007) Lyovka  2 / 0   872 MB   2008-02-07 17:06 
GodDeR 
Новенький


З нами з: 08.03.13
Востаннє: 25.07.14
Повідомлень: 2

2013-06-06 14:20  
Встаньте на роздачу!!!! Confused
kino. 
Модератор відео


З нами з: 27.06.10
Востаннє: 03.12.16
Повідомлень: 2900

2013-06-06 15:50  
GodDeR написано:
Встаньте на роздачу!!!!

Малий рейтинг завантаження заборонено. Почитайте ЦЕ

RomanPirs 
Новенький


З нами з: 17.03.12
Востаннє: 25.10.16
Повідомлень: 1

2014-03-31 21:59  
дайте швидкості
13Mark 
Поважний учасник


З нами з: 25.04.08
Востаннє: 02.12.16
Повідомлень: 179

2014-04-07 00:30  
Мій друг колись дуже "плювався" на цей фільм, оскільки сходив на нього з дівчиною) Але фільм класний=)
vityay17 
Новенький


З нами з: 10.04.12
Востаннє: 27.11.16
Повідомлень: 1

2014-09-28 12:02  
Станьте будь ласка на роздачу)Happy
Dimanhya 
Новенький


З нами з: 09.06.14
Востаннє: 03.12.16
Повідомлень: 15

2016-10-29 18:02  
Хоч хтось на роздачу станьте, будьте ласкаві!
Ваш часовий пояс: GMT + 2 Години

Нова тема   Відповісти