Завантажити та скачати торренти українською


Залізна маска / Le Masque de fer (1962) 1080p Ukr/Fre

Нові коментарі

Нова тема   Відповісти
Автор Повідомлення
Anonymous 







2013-04-03 16:45  
Залізна маска / Le Masque de fer (1962) 1080p Ukr/Fre

Залізна маска / Le Masque de fer (1962) 1080p Ukr/Fre


Жанр: історичний, пригодницький
Країна: Франція, Італія



Кіностудія / кінокомпанія: Ceres Films, Films Marly, Fucha Productions
Режисер: Анрі Декуан / Henri Decoin
Актори: Жан Маре / Jean Marais (Charles d'Artagnan), Сильвія Кошина / Sylva Koscina (Marion), Жан-Франсуа Порон / Jean-François Poron (Henri / Louis XIV), Жизель Паскаль / Giselle Pascal (Mme de Chaulmes), Філіп Лемер / Philippe Lemaire (De Vaudreuil), Ноель Роквер / Noel Roquevert (M. de Saint-Mars), Жан Рошфор / Jean Rochefort (Lastreaumont), Клодін Оже / Claudine Auger (Isabelle de Saint-Mars)


Сюжет:
На острові в Середземному морі у в'язниці утримується загадковий в'язень в залізній масці. Під страхом смерті заборонено бачити бранця без неї. Людовик XIV, король Франції, небезпечно хворий. Хвороба може стати причиною зриву підписання мирної угоди з Іспанією, головною умовою якої є шлюб Людовика з іспанською інфантою. Кардинал Мазаріні доручає капітану д’Артаньяну доставити в Париж таємничого бранця. Але йому допомагає втекти його кохана, дочка начальника в'язниці, красуня Ізабель…

Окрім того, накази вищих осіб держави стають на заваді побаченню д’Артаньяна та дами його серця, мадам де Шом...


Тривалість: 02:07:52
Якість: 1080p
Відео:
кодек:
розмір кадру: 1920x816
бітрейт: 8228 кб/с

Аудіо # 1:
мова: українська
переклад: багатоголосий закадровий
кодек: 2.0
бітрейт: 192 кб/с
Інформація про доріжку:


Українська доріжка з релізу п.Tanat13, перероблена з 25 fps на 24 fps та люб"язно надана п.Lan"ом:

Lan написано:

Залив на сервер Гуртом перероблену мною доріжку до фільма Залізна маска / Le Masque de fer (1962):
Le Masque de fer.(1962).02h07m52s.[Tonis][2.0-192].24fps.[Hurtom-Lan].

Я її не тільки розтягнув, але й зберіг тональність (після розтягнення тональність підвищується), та обережно почистив від металевого дзиленчання.
Аудіо # 2:
мова: французька
переклад: оригінал
кодек: 1.0
бітрейт: 96 кб/с
MediaInfo
General
Unique ID : 225486359480379160407044115847562139014 (0xA9A317DA79943BA5A388E9F78DE41586)
Complete name : Le.Masque.de.fer.1962..1080р.Ukr.Fre.mkv
Format : Matroska
Format version : Version 4 / Version 2
File size : 7.61 GiB
Duration : 2h 7mn
Overall bit rate : 8 519 Kbps
Movie name : Залізна маска / Le Masque de fer (1962), release by igor911 for Hurtom.com
Encoded date : UTC 2013-04-03 12:20:56
Writing application : mkvmerge v6.1.0 ('Old Devil') built on Mar 2 2013 14:32:37
Writing library : libebml v1.3.0 + libmatroska v1.4.0

Video
ID : 1
Format : AVC
Format/Info : Advanced Video Codec
Format profile : [email protected]
Format settings, CABAC : Yes
Format settings, ReFrames : 5 frames
Codec ID : V_MPEG4/ISO/AVC
Duration : 2h 7mn
Bit rate : 8 228 Kbps
Width : 1 920 pixels
Height : 816 pixels
Display aspect ratio : 2.35:1
Frame rate mode : Constant
Frame rate : 24.000 fps
Color space : YUV
Chroma subsampling : 4:2:0
Bit depth : 8 bits
Scan type : Progressive
Bits/(Pixel*Frame) : 0.219
Stream size : 7.20 GiB (95%)
Title : Залізна маска / Le Masque de fer (1962), rip by taty75 [Freeisland]
Writing library : core 129 r2230 1cffe9f
Encoding settings : cabac=1 / ref=5 / deblock=1:-1:-1 / analyse=0x3:0x133 / me=umh / subme=10 / psy=1 / psy_rd=1.00:0.00 / mixed_ref=1 / me_range=48 / chroma_me=1 / trellis=2 / 8x8dct=1 / cqm=0 / deadzone=21,11 / fast_pskip=0 / chroma_qp_offset=-2 / threads=6 / lookahead_threads=1 / sliced_threads=0 / nr=0 / decimate=1 / interlaced=0 / bluray_compat=0 / constrained_intra=0 / bframes=10 / b_pyramid=2 / b_adapt=2 / b_bias=0 / direct=3 / weightb=1 / open_gop=0 / weightp=2 / keyint=230 / keyint_min=23 / scenecut=40 / intra_refresh=0 / rc=2pass / mbtree=0 / bitrate=8228 / ratetol=2.0 / qcomp=1.00 / qpmin=0 / qpmax=51 / qpstep=4 / cplxblur=20.0 / qblur=0.5 / ip_ratio=1.40 / pb_ratio=1.30 / aq=1:1.00
Language : English
Default : Yes
Forced : No
Color primaries : BT.709
Transfer characteristics : BT.709
Matrix coefficients : BT.709

Audio #1
ID : 2
Format : AC-3
Format/Info : Audio Coding 3
Mode extension : CM (complete main)
Format settings, Endianness : Big
Codec ID : A_AC3
Duration : 2h 7mn
Bit rate mode : Constant
Bit rate : 192 Kbps
Channel(s) : 2 channels
Channel positions : Front: L R
Sampling rate : 48.0 KHz
Bit depth : 16 bits
Compression mode : Lossy
Stream size : 176 MiB (2%)
Title : MVO Tonis 2.0 192 kbps [Hurtom-Lan]
Language : Ukrainian
Default : Yes
Forced : No

Audio #2
ID : 3
Format : AC-3
Format/Info : Audio Coding 3
Mode extension : CM (complete main)
Format settings, Endianness : Big
Codec ID : A_AC3
Duration : 2h 7mn
Bit rate mode : Constant
Bit rate : 96.0 Kbps
Channel(s) : 1 channel
Channel positions : Front: C
Sampling rate : 48.0 KHz
Bit depth : 16 bits
Compression mode : Lossy
Stream size : 87.8 MiB (1%)
Title : Original
Language : French
Default : No
Forced : No

Menu
00:00:00.000 : en:00:00:00.000
00:09:32.250 : en:00:09:32.250
00:19:24.666 : en:00:19:24.666
00:37:46.500 : en:00:37:46.500
00:50:58.208 : en:00:50:58.208
00:59:04.541 : en:00:59:04.541
01:07:05.166 : en:01:07:05.166
01:11:02.833 : en:01:11:02.833
01:23:53.833 : en:01:23:53.833
01:37:52.791 : en:01:37:52.791
01:43:10.375 : en:01:43:10.375
01:53:35.375 : en:01:53:35.375


Джерела та подяки: ріп відео, оригінальні доріжка та субтитри - taty75 (Freeisland); українська доріжка - Lan та Tanat13 (обидва - Гуртом).

Особиста оцінка: 10 - без зайвих вагань рекомендую всім!


Срібний реліз (на рейтинг впливає 50% завантаженого)
 Трекер:    Зареєстрований   

Завантажити / скачати фільм українською



відео для новачків



 Зареєстрований:   2013-04-03 16:45
 Розмір:   7.61 GB 
 Оцінка фільму:   3.1/10 (Голосів: 13)
   
Інші релізи
   Залізна маска / Le masque de fer (1962) Ukr/Fra yuranako  2 / 0   2 GB   2013-04-04 18:05 
Anonymous 







2013-04-03 17:04  
ЗАЛИШАЙТЕСЬ ЯКОМОГА ДОВШЕ НА РОЗДАЧІ !
СКАЧАВ САМ - ДАЙ СКАЧАТИ ІНШИМ

Ваш часовий пояс: GMT + 2 Години

Нова тема   Відповісти