Завантажити та скачати торренти українською


ManSound - a Capellissimo (2012) [APE] | A Cappella / Jazz

Нові коментарі

Нова тема   Відповісти
Автор Повідомлення
ssTAss 
Модератор музики


З нами з: 05.07.08
Востаннє: 03.12.16
Повідомлень: 10932

2013-04-03 16:17  
ManSound - a Capellissimo (2012) [APE] | A Cappella / Jazz

ManSound - a Capellissimo (2012) [APE] | A Cappella / Jazz


Стиль: Jazz
Країна, місто: Україна, Київ
Сайти: Офіційний сайт
Видавець: гурт
Виконавці:
Юрій Роменський
В'ячеслав Рубель
Вілен Кільченко
Володимир Сухін
Рубен Толмачев
Сергій Харченко
Пісні:
    1. Menuet
    музика: L.Boccherini, arr. R.Tolmachev
    2. Melody
    музика: Myroslav Skoryk, arr. R.Tolmachev
    слова: L. Carlos

    3. Cantaloop'A (feat. (Іван Дорн, Танок На Майдані Конґо)
    музика: H.Hankok, arr. Y.Romensky
    4. Preludes Cis moll & G moll
    музика: S.Rachmaninoff, arr. R.Tolmachev
    5. More Than Words
    музика: N.Bettencourt, arr. R.Tolmachev
    слова: G.Cherone

    6. Air on G string (feat. Ігор Рудий)
    музика: J.S.Bach, arr. A.Lyubarova
    7. It Don't Mean a Thing (If It Ain't Got That Swing)
    музика: D.Ellington, arr. R.Tolmachev
    слова: I.Mills

    8. Valse (feat. Василь Попадюк)
    музика: F.Chopin, arr. A.Lyubarova
    9. Smile (part I) (feat. (Джамала)
    музика: Jamala, arr. R.Tolmachev
    слова: Jamala

    10. Smile (part II) (feat. (Джамала)
    музика: Jamala, arr. R.Tolmachev
    слова: Jamala

    11. Smile
    музика: C.Chaplin, arr. R.Tolmachev
    слова: J.Turner, G.Parsons

    12. Old McDonald
    музика: traditional, arr. R.Tolmachev
    bonus:
    13. Oi, Posiyav Chumak Grechku
    музика: Ukrainian folk song, arr. V.Sukhin
    14. Air on G string (ANDI VAX remix)
log
Exact Audio Copy V0.99 prebeta 5 from 4. May 2009

Звіт EAC про видобування, котре виконане 22. квітня 2012, 15:07

ManSound / Acapellissimo

Дисковод: MATSHITABD-CMB UJ141AS Adapter: 0 ID: 1

Режим читання : Точний
Використати точний потік : Так
Вимкнути аудіо кеш : Так
Застосувати мітки C2 : Ні

Корекція зміщення при читанні : 103
Екстрачитання областей Lead-in і Lead-out : Ні
Заповнення пропущених семплів тишею : Так
Видалення блоків з тишею на початку і кінці : Ні
При вирахуванні CRC використовувались нульові семпли : Так
Використаний інтерфейс : Встановлений зовнішній ASPI-інтерфейс

Застосований вихідний формат : Внутрішні WAV-операції
Формат семпла : 44.100 Гц; 16 біт; стерео

TOC видобутого CD

Трек | Старт | Довжина | Початковий сектор | Кінцевий сектор
------------------------------------------------------------------
1 | 0:00.00 | 3:15.62 | 0 | 14686
2 | 3:15.62 | 4:47.42 | 14687 | 36253
3 | 8:03.29 | 4:06.44 | 36254 | 54747
4 | 12:09.73 | 4:15.73 | 54748 | 73945
5 | 16:25.71 | 5:12.46 | 73946 | 97391
6 | 21:38.42 | 3:27.42 | 97392 | 112958
7 | 25:06.09 | 5:02.51 | 112959 | 135659
8 | 30:08.60 | 3:35.70 | 135660 | 151854
9 | 33:44.55 | 2:23.21 | 151855 | 162600
10 | 36:08.01 | 3:23.74 | 162601 | 177899
11 | 39:32.00 | 4:04.43 | 177900 | 196242
12 | 43:36.43 | 3:01.39 | 196243 | 209856
13 | 46:38.07 | 3:11.26 | 209857 | 224207
14 | 49:49.33 | 2:48.57 | 224208 | 236864

Статус діапазону і помилки

Обраний діапазон

Ім'я файлу C:\Users\Jurko\Desktop\ManSound - a Capellissimo\ManSound - Acapellissimo.wav

Піковий рівень 100.0 %
Якість діапазону 100.0 %
CRC тесту FEF639E3
CRC копії FEF639E3
Копіювання... OK

Помилки не траплялися

Звіт Точного Видобування

Трек 1 не присутнє в базі даних
Трек 2 не присутнє в базі даних
Трек 3 не присутнє в базі даних
Трек 4 не присутнє в базі даних
Трек 5 не присутнє в базі даних
Трек 6 не присутнє в базі даних
Трек 7 не присутнє в базі даних
Трек 8 не присутнє в базі даних
Трек 9 не присутнє в базі даних
Трек 10 не присутнє в базі даних
Трек 11 не присутнє в базі даних
Трек 12 не присутнє в базі даних
Трек 13 не присутнє в базі даних
Трек 14 не присутнє в базі даних

Жодного трека немає в базі AccurateRip

Кінець звіту
fooCDtect
fooCDtect - foobar2000 + auCDtect, baralgin.

auCDtect: CD records authenticity detector, version 0.8.2
Copyright (c) 2004 Oleg Berngardt. All rights reserved.
Copyright (c) 2004 Alexander Djourik. All rights reserved.

mode: 0

===========================================
Track: 01 - Menuet
Quality: CDDA 100%
===========================================
Track: 02 - Melody
Quality: CDDA 100%
===========================================
Track: 03 - CantaloopA
Quality: CDDA 99%
===========================================
Track: 04 - Preludes Cis moll & G moll
Quality: CDDA 99%
===========================================
Track: 05 - More Than Words
Quality: CDDA 100%
===========================================
Track: 06 - Air on G string
Quality: CDDA 100%
===========================================
Track: 07 - It Don t Mean a Thing (If It Ain t Got That Swing)
Quality: CDDA 100%
===========================================
Track: 08 - Valse
Quality: CDDA 85%
===========================================
Track: 09 - Smile (part I)
Quality: CDDA 100%
===========================================
Track: 10 - Smile (part II)
Quality: CDDA 99%
===========================================
Track: 11 - Smile
Quality: CDDA 76%
===========================================
Track: 12 - Old McDonald
Quality: CDDA 100%
===========================================
Track: 13 - Oi, Posiyav Chumak Grechku
Quality: CDDA 100%
===========================================
Track: 14 - Air on G string (ANDI VAX remix)
Quality: CDDA 100%
===========================================
Тривалість: 00:52:38
Мова: відсутня (1,4,6,8,14), ? (2), українська (3,13), англійська (5,7,9-12)
Аудіо-кодек: APE
Бітрейт: 891 кб/с
Джерело: інший трекер
Додаткова інформація:
Як їм це вдається? Все просто і, водночас, не зовсім просто. Освіта і досвід, натхнення і фантазія, кропітка робота і – дуже різнопланові музичні зацікавлення. А як наслідок – барвисті задуми. Новий альбом ManSound зібрав під однією обкладинкою світові еверґріни, несподівані обробки класики та фольклору. Дивне, здавалося б, поєднання – проте у виконанні ManSound все це звучить не тільки цікаво, а й напрочуд гармонійно у своїй строкатості. Зайвий раз бачиш, що, за умови правильного підходу, немає жодної істотної різниці між мелодіями Чапліна, Баха та "Мелодією" Скорика: вдумливе переосмислення виводить різні музичні пласти в інше, спільне поле діалогу зі слухачем. Майже незалежно від його музичних уподобань. А ще не забуваймо про яскраві інструментальні соло від Василя Попадюка та Ігоря Рудого, спільні експерименти з Джамалою, ТНМК та Іваном Дорном – так, тут однозначно є, що послухати і чим себе приємно здивувати...
УМКА


Якщо Ви справді бажаєте підтримати українське - після прослуховування, якщо музика вам сподобалась,
придбайте ліцензійний диск.
Підтримаймо вітчизняних виконавців!


Срібний реліз (на рейтинг впливає 50% завантаженого)
 Трекер:    Зареєстрований   

Завантажити / скачати українську музику



відео для новачків



 Зареєстрований:   2013-04-03 16:17
 Розмір:   335 MB 
 Оцінка музики:   7.5/10 (Голосів: 11)
   
Ваш часовий пояс: GMT + 2 Години

Нова тема   Відповісти