Завантажити та скачати торренти українською


50 перших поцілунків / 50 First Dates (2004) AVC 2xUkr/Eng | sub Eng

Нові коментарі

Нова тема   Відповісти
Автор Повідомлення
DеLight 
Відео Гуртом - фільмокрай
Відео Гуртом - фільмокрай


З нами з: 24.08.11
Востаннє: 17.11.16
Повідомлень: 664

2013-04-03 14:30  

50 перших поцілунків / 50 First Dates (2004) AVC 2xUkr/Eng | sub Eng



Жанр: комедія, романтичний
Країна: США





Кіностудія / кінокомпанія: Anonymous Content, Columbia Pictures Corporation, Flower Films (II), Happy Madison Productions
Режисер: Пітер Сіґал / Peter Segal
Актори: Адам Сендлер / Adam Sandler, Дрю Беррімор / Drew Barrymore, Роб Шнайдер / Rob Schneider, Шон Остін / Sean Astin, Ден Ейкройд / Dan Aykroyd, Емі Гілл / Amy Hill, Блейк Кларк / Blake Clark, Помайкай Браун / Pomaika'i Brown та інші

Сюжет:
Генрі Рот, ветеринар океанаріуму на Гаваях, ловелас і гульвіса, несподівано зустрічає дівчину своєї мрії - чарівну Люсі Вітмор. Кохана відповідає хлопцю взаємністю. Але, незабаром з'ясовується, що після автомобільної аварії Люсі страждає рідкісною формою амнезії: вона добре пам'ятає все, що сталося до нещастя, але, геть забуває події кожного попереднього дня. Однак Генрі не має наміру капітулювати перед труднощами і сповнений рішучості боротися за своє кохання.


Тривалість: 01:39:04
Якість: AVC

Відео:
кодек:
розмір кадру: 1024 x 428
бітрейт: 1 517 кб/с

Аудіо #1:
мова: українська
переклад: багатоголосий закадровий
кодек: 2.0
бітрейт: 192 кб/с

Джерело озвучення:


Аудіо #2:
мова: українська
переклад: багатоголосий закадровий
кодек: 2.0
бітрейт: 192 кб/с

Джерело озвучення:


Аудіо #3:
мова: англійська
переклад: оригінал
кодек: 2.0
бітрейт: 192 кб/с

Субтитри #1:
мова: українська
тип: програмні (м'які)
формат: *.srt
Примітка:
» субтитри до моментів без перекладу (аудіо: оригінал; ~ 4 хв. на проміжку 01:01:00-01:05:00), така була трансляція на 1+1, врізана рекламою
Субтитри #2:
мова: англійська
тип: програмні (м'які)
формат: *.srt


MediaInfo

Код:
General
Unique ID                      : 239598959168629351768427215579806992351 (0xB44114BD1DCEB19582D439376B4887DF)
Complete name                  : D:\Torrents\50 First Dates (2004) AVC [2xUkr, Eng] [Hurtom].mkv
Format                         : Matroska
Format version                 : Version 4 / Version 2
File size                      : 1.45 GiB
Duration                       : 1h 39mn
Overall bit rate               : 2 095 Kbps
Movie name                     : 50 First Dates (2004) AVC [2xUkr, Eng] [Hurtom] by Delight
Encoded date                   : UTC 2013-04-02 18:47:38
Writing application            : mkvmerge v6.1.0 ('Old Devil') built on Mar  2 2013 14:32:37
Writing library                : libebml v1.3.0 + libmatroska v1.4.0

Video
ID                             : 1
Format                         : AVC
Format/Info                    : Advanced Video Codec
Format profile                 : [email protected]
Format settings, CABAC         : Yes
Format settings, ReFrames      : 12 frames
Codec ID                       : V_MPEG4/ISO/AVC
Duration                       : 1h 39mn
Bit rate                       : 1 517 Kbps
Width                          : 1 024 pixels
Height                         : 428 pixels
Display aspect ratio           : 2.40:1
Frame rate mode                : Constant
Frame rate                     : 23.976 fps
Color space                    : YUV
Chroma subsampling             : 4:2:0
Bit depth                      : 8 bits
Scan type                      : Progressive
Bits/(Pixel*Frame)             : 0.144
Stream size                    : 1.02 GiB (71%)
Title                          : 50 First Dates (2004) AVC
Writing library                : core 129 r2230 1cffe9f
Encoding settings              : cabac=1 / ref=12 / deblock=1:-2:-1 / analyse=0x3:0x133 / me=umh / subme=10 / psy=1 / psy_rd=1.09:0.06 / mixed_ref=1 / me_range=32 / chroma_me=1 / trellis=2 / 8x8dct=1 / cqm=0 / deadzone=21,11 / fast_pskip=0 / chroma_qp_offset=-3 / threads=2 / lookahead_threads=1 / sliced_threads=0 / nr=0 / decimate=1 / interlaced=0 / bluray_compat=0 / constrained_intra=0 / bframes=5 / b_pyramid=2 / b_adapt=2 / b_bias=0 / direct=3 / weightb=1 / open_gop=0 / weightp=2 / keyint=230 / keyint_min=23 / scenecut=40 / intra_refresh=0 / rc_lookahead=40 / rc=2pass / mbtree=1 / bitrate=1517 / ratetol=1.0 / qcomp=0.60 / qpmin=0 / qpmax=69 / qpstep=4 / cplxblur=20.0 / qblur=0.5 / ip_ratio=1.40 / aq=2:1.00
Language                       : English
Default                        : Yes
Forced                         : No

Audio #1
ID                             : 2
Format                         : AC-3
Format/Info                    : Audio Coding 3
Mode extension                 : CM (complete main)
Format settings, Endianness    : Big
Codec ID                       : A_AC3
Duration                       : 1h 39mn
Bit rate mode                  : Constant
Bit rate                       : 192 Kbps
Channel(s)                     : 2 channels
Channel positions              : Front: L R
Sampling rate                  : 48.0 KHz
Bit depth                      : 16 bits
Compression mode               : Lossy
Stream size                    : 136 MiB (9%)
Title                          : 2.0; 192 kbps; багатоголосий закадровий {1+1}
Language                       : Ukrainian
Default                        : Yes
Forced                         : No

Audio #2
ID                             : 3
Format                         : AC-3
Format/Info                    : Audio Coding 3
Mode extension                 : CM (complete main)
Format settings, Endianness    : Big
Codec ID                       : A_AC3
Duration                       : 1h 39mn
Bit rate mode                  : Constant
Bit rate                       : 192 Kbps
Channel(s)                     : 2 channels
Channel positions              : Front: L R
Sampling rate                  : 48.0 KHz
Bit depth                      : 16 bits
Compression mode               : Lossy
Stream size                    : 136 MiB (9%)
Title                          : 2.0; 192 kbps; багатоголосий закадровий {Україна}
Language                       : Ukrainian
Default                        : No
Forced                         : No

Audio #3
ID                             : 4
Format                         : AC-3
Format/Info                    : Audio Coding 3
Mode extension                 : CM (complete main)
Format settings, Endianness    : Big
Codec ID                       : A_AC3
Duration                       : 1h 39mn
Bit rate mode                  : Constant
Bit rate                       : 192 Kbps
Channel(s)                     : 2 channels
Channel positions              : Front: L R
Sampling rate                  : 48.0 KHz
Bit depth                      : 16 bits
Compression mode               : Lossy
Stream size                    : 136 MiB (9%)
Title                          : 2.0; 192 kbps; original
Language                       : English
Default                        : No
Forced                         : No

Text #1
ID                             : 5
Format                         : UTF-8
Codec ID                       : S_TEXT/UTF8
Codec ID/Info                  : UTF-8 Plain Text
Title                          : 1+1
Language                       : Ukrainian
Default                        : Yes
Forced                         : No

Text #2
ID                             : 6
Format                         : UTF-8
Codec ID                       : S_TEXT/UTF8
Codec ID/Info                  : UTF-8 Plain Text
Title                          : full
Language                       : English
Default                        : No
Forced                         : No

Світлини









Джерело:
За запис звуку з каналу «1+1» подяка sando7. За доріжку каналу «Україна» подяка ТРЕМУ
Особиста оцінка: 9 - чудовий позитивний фільм для перегляду


Срібний реліз (на рейтинг впливає 50% завантаженого)
 Трекер:    Зареєстрований   

Завантажити / скачати фільм українською



відео для новачків



 Зареєстрований:   2013-04-03 14:30
 Розмір:   1.45 GB 
 Оцінка фільму:   9.5/10 (Голосів: 29)
   
Інші релізи
   50 перших поцілунків / 50 First Dates (2004) 1080p Ukr/Eng | Sub Eng TPEM  1 / 0   8.22 GB   2010-07-04 14:06 
   50 перших поцілунків / 50 First Dates (2004) TPEM  0 / 0   1.44 GB   2010-02-21 12:55 
MBonner 
Новенький


З нами з: 17.02.09
Востаннє: 18.05.15
Повідомлень: 3

2013-04-03 14:47  
TY Happy
karvai0 
Відео Гуртом - запис з ТБ
Відео Гуртом - запис з ТБ


З нами з: 18.01.10
Востаннє: 09.09.16
Повідомлень: 3686

2013-04-03 15:22  
Delight` написано:
» субтитри до моментів без перекладу (аудіо: оригінал; ~ 4 хв. на проміжку 01:01:00-01:05:00), така була трансляція на 1+1, врізана рекламою

у мене теж є запис, може в мене з іншої трансляції і є цей момент

DеLight 
Відео Гуртом - фільмокрай
Відео Гуртом - фільмокрай


З нами з: 24.08.11
Востаннє: 17.11.16
Повідомлень: 664

2013-04-03 15:58  
karvai0
Вантажив твій запис - ідентична проблема.

eXteSy- 
VIP


З нами з: 06.04.09
Востаннє: 04.12.16
Повідомлень: 1452

2013-04-03 18:38  
Класна комедія, яка чим ближче до закінчення, тим більше перетворюється на мелодраму. Однак це не робить фільм гіршим.
8/10

_Alex_UA 
Свій


З нами з: 18.07.12
Востаннє: 29.11.16
Повідомлень: 113

2013-04-04 17:12  
теж раджу подивитися. фільм веселий, для відпочинку!
Arsenfpu 
Відео Гуртом - фільмокрай
Відео Гуртом - фільмокрай


З нами з: 30.04.09
Востаннє: 03.12.16
Повідомлень: 1582

2016-08-30 19:26  
Новий показував з озвученням України.
Ваш часовий пояс: GMT + 2 Години

Нова тема   Відповісти