Завантажити та скачати торренти українською


Антоніна Маренич - Співаю для Вас (2006) [FLAC] | Pop / Folk

Нові коментарі

Нова тема   Відповісти
Автор Повідомлення
ssTAss 
Модератор музики


З нами з: 05.07.08
Востаннє: 10.12.16
Повідомлень: 10950

2013-04-02 23:13  
Антоніна Маренич - Співаю для Вас (2006) [FLAC] | Pop / Folk

Антоніна Маренич - Співаю для Вас (2006) [FLAC] | Pop / Folk


Стиль: Pop, Folk
Країна, місто: Україна, Луцьк | Росія, Куйбишев
Видавець: Rostok Records
Виконавці:
А. Маренич (1-12)
вокальна група А. Маренич (6,12)
супровід фортепіано А. Маренич (11)
Пісні:
    1. Земле моя
    музика: А. Маренич
    слова: А. Маренич

    2. Милий, прощай (вальс)
    музика: А. Маренич
    слова: В. Простопчук

    3. Стоїть гора високая
    музика: народ
    слова: Л. Глібов

    4. Біля білої стіни
    музика: О. Злотник
    слова: М. Мельніков

    5. Ромашкове літо
    музика: А. Маренич
    слова: В. Кравчук

    6. Адажіо
    музика: Т. Альбіноні
    слова: народні

    7. Розмова-мовонька в Ірпені
    музика: А. Маренич
    слова: Л. Забашта

    8. Осіння мелодія
    музика: А. Маренич
    слова: А. Маренич

    9. Смутної провесни
    музика: М. Лисенко
    слова: Л. Українка

    10. Ave Maria
    музика: Й. С. Бах
    слова: народні

    11. Колискова для всіх
    музика: А. Маренич
    слова: без слів

    12. Луцьк, засинай
    музика: А. Маренич
    слова: А. Маренич / Г. Максимчук
log
Exact Audio Copy V1.0 beta 3 from 29. August 2011

EAC extraction logfile from 8. January 2012, 2:42

Антонiна Маренич / Спiваю для Вас

Used drive : PIONEER DVD-RW DVR-212 Adapter: 1 ID: 0

Read mode : Secure
Utilize accurate stream : Yes
Defeat audio cache : Yes
Make use of C2 pointers : No

Read offset correction : 48
Overread into Lead-In and Lead-Out : No
Fill up missing offset samples with silence : Yes
Delete leading and trailing silent blocks : No
Null samples used in CRC calculations : Yes
Used interface : Native Win32 interface for Win NT & 2000

Used output format : Internal WAV Routines
Sample format : 44.100 Hz; 16 Bit; Stereo

TOC of the extracted CD

Track | Start | Length | Start sector | End sector
---------------------------------------------------------
1 | 0:00.00 | 4:12.46 | 0 | 18945
2 | 4:12.46 | 3:14.19 | 18946 | 33514
3 | 7:26.65 | 2:58.47 | 33515 | 46911
4 | 10:25.37 | 4:58.64 | 46912 | 69325
5 | 15:24.26 | 3:16.51 | 69326 | 84076
6 | 18:41.02 | 4:25.18 | 84077 | 103969
7 | 23:06.20 | 4:48.62 | 103970 | 125631
8 | 27:55.07 | 3:40.06 | 125632 | 142137
9 | 31:35.13 | 2:09.28 | 142138 | 151840
10 | 33:44.41 | 2:49.36 | 151841 | 164551
11 | 36:34.02 | 3:25.35 | 164552 | 179961
12 | 39:59.37 | 2:40.65 | 179962 | 192026

Range status and errors

Selected range

Filename J:\MP3\Тріо Маренич (FLAC)\Антонiна Маренич - Спiваю для Вас (2006)\Антонiна Маренич - Спiваю для Вас.wav

Peak level 100.0 %
Extraction speed 6.5 X
Range quality 99.9 %
Test CRC B920C718
Copy CRC B920C718
Copy OK

No errors occurred

AccurateRip summary

Track 1 not present in database
Track 2 not present in database
Track 3 not present in database
Track 4 not present in database
Track 5 not present in database
Track 6 not present in database
Track 7 not present in database
Track 8 not present in database
Track 9 not present in database
Track 10 not present in database
Track 11 not present in database
Track 12 not present in database

None of the tracks are present in the AccurateRip database

End of status report

---- CUETools DB Plugin V2.1.3

[CTDB TOCID: ZrUtzRDbdrHymIp.auq69X0oXoY-] disk not present in database, Submit result: ZrUtzRDbdrHymIp.auq69X0oXoY- has been uploaded

==== Log checksum CCE24C0866017DB10CE8085184A08AA98B2C3D8BAA47BB471D42BCC6F0867210 ====
fooCDtect
fooCDtect - foobar2000 + auCDtect, baralgin.

auCDtect: CD records authenticity detector, version 0.8.2
Copyright (c) 2004 Oleg Berngardt. All rights reserved.
Copyright (c) 2004 Alexander Djourik. All rights reserved.

mode: 0

===========================================
Track: 01 - Земле моя
Quality: CDDA 100%
===========================================
Track: 02 - Милий, прощай (вальс)
Quality: CDDA 100%
===========================================
Track: 03 - Стоїть гора високая
Quality: CDDA 100%
===========================================
Track: 04 - Біля білої стіни
Quality: CDDA 100%
===========================================
Track: 05 - Ромашкове літо
Quality: CDDA 100%
===========================================
Track: 06 - Адажіо
Quality: CDDA 100%
===========================================
Track: 07 - Розмова-мовонька в Ірпені
Quality: CDDA 100%
===========================================
Track: 08 - Осіння мелодія
Quality: CDDA 100%
===========================================
Track: 09 - Смутної провесни
Quality: CDDA 99%
===========================================
Track: 10 - Ave Maria
Quality: CDDA 99%
===========================================
Track: 11 - Колискова для всіх
Quality: CDDA 100%
===========================================
Track: 12 - Луцьк, засинай
Quality: CDDA 100%
===========================================
Тривалість: 00:42:40
Мова: українська, італійська (6), латина (10), відсутня (11)
Аудіо-кодек: FLAC
Бітрейт: 884 кб/с
Джерело: рутрекер
Додаткова інформація:
Гадаю, шанувальники української пісні у всьому світі добре знають, хто така Антоніна Маренич. Щоправда, дотепер вона мала славу в якості учасниці Тріо Маренич. Тепер, коли Антоніна Маренич відзначає 40-річчя творчої діяльності – настав, нарешті, час і для власної творчості. Ви бачите зараз перед собою перший її сольний альбом. Ясна річ, у більшості пісень цього альбому вона є автором музики та аранжувань. У кількох – і автором слів. Але головне – виконання. Лише дві пісні Антоніна Маренич виконує у супроводі власної вокальної групи, все решта – це її голос, її чарівність та шарм. І ось що цікаво: в її виконанні цілком органічно переплітаються народний спів, міський та циганський романс. На перший погляд, нічого аж такого новаторського. Але коли все це плавно перетікає одне в одне, коли це не просто мозаїка, а частини чогось більшого, цілісного – виникає щось нове. Ніжне, зворушливе, усміхнене і – обережне. Завдяки цій обережності навіть твори Альбіноні та Баха не виглядають тут чужими, недоречними – навпаки, вони теж легко вписалися у загальний настрій. З огляду на таку обережність, залишається тільки трохи шкодувати, що Антоніна Маренич не зайнялася сольною творчістю раніше. І сподіватися, що вона не зупиниться на одному альбомі, а продовжить привносити у звучання української естради свою ноту – зворушливу і обережну.
УМКА


Якщо Ви справді бажаєте підтримати українське - після прослуховування, якщо музика вам сподобалась,
придбайте ліцензійний диск.
Підтримаймо вітчизняних виконавців!


Срібний реліз (на рейтинг впливає 50% завантаженого)
 Трекер:    Зареєстрований   

Завантажити / скачати українську музику



відео для новачків



 Зареєстрований:   2013-04-02 23:13
 Розмір:   299 MB 
 Оцінка музики:   7.5/10 (Голосів: 11)
   
Ваш часовий пояс: GMT + 2 Години

Нова тема   Відповісти