Завантажити та скачати торренти українською


Hoggwash - The Last Horizon (2007) [WV] | Symphonic Prog

Нові коментарі

Нова тема   Відповісти
Останній раз роздавалося ssTAss (2016-12-10)
Автор Повідомлення
ssTAss 
Модератор музики


З нами з: 05.07.08
Востаннє: 10.12.16
Повідомлень: 10954

2013-03-31 00:29  
Hoggwash - The Last Horizon (2007) [WV] | Symphonic Prog

Hoggwash - The Last Horizon (2007) [WV] | Symphonic Prog


Стиль: Symphonic Prog, Progressive Rock
Країна, місто: Україна, Харків
Сайти: Офіційний сайт
Видавець: Caerllysi Music
Виконавці:
Antony Kalugin : вокал, клавішні, перкусія, програмування
Roman Philonenko : гітари
Artem Kalinin : ударні
Sergey Kovalev : баян, вокал
Lesya Kofanova : флейта
Helen Bour : гобой
San Zhara : струнні інструменти
Пісні:
    1. Out of the darkness (15:30)
    2. Reflections of life (6:00)
    3. Under a rainbow sky (6:10)
    4. Road of many challenges (10:05)
    5. Like a miracle (9:02)
    6. Watching the sun go down (6:10)
    7. Another Friday night (9:15)
    8. The last horizon (4:28)
    9. Sea-Shell (1:22)
    10. Rainbow (6:56)
log
Exact Audio Copy V1.0 beta 3 from 29. August 2011

EAC extraction logfile from 3. October 2012, 19:52

Hoggwash / The Last Horizon

Used drive : TSSTcorpCDDVDW SH-222BB Adapter: 3 ID: 1

Read mode : Secure
Utilize accurate stream : Yes
Defeat audio cache : Yes
Make use of C2 pointers : No

Read offset correction : 6
Overread into Lead-In and Lead-Out : No
Fill up missing offset samples with silence : Yes
Delete leading and trailing silent blocks : No
Null samples used in CRC calculations : Yes
Used interface : Installed external ASPI interface

Used output format : User Defined Encoder
Selected bitrate : 1024 kBit/s
Quality : High
Add ID3 tag : No
Command line compressor : C:\Program Files (x86)\Exact Audio Copy\wavpack.exe
Additional command line options : -hm %source% %dest%

TOC of the extracted CD

Track | Start | Length | Start sector | End sector
---------------------------------------------------------
1 | 0:00.00 | 15:30.10 | 0 | 69759
2 | 15:30.10 | 6:00.02 | 69760 | 96761
3 | 21:30.12 | 6:09.27 | 96762 | 124463
4 | 27:39.39 | 10:04.55 | 124464 | 169818
5 | 37:44.19 | 9:02.29 | 169819 | 210497
6 | 46:46.48 | 6:10.19 | 210498 | 238266
7 | 52:56.67 | 9:15.58 | 238267 | 279949
8 | 62:12.50 | 4:30.55 | 279950 | 300254
9 | 66:43.30 | 1:21.42 | 300255 | 306371
10 | 68:04.72 | 6:55.49 | 306372 | 337545

Range status and errors

Selected range

Filename F:\NetLab\Hoggwash - The Last Horizon\Hoggwash - The Last Horizon.wav

Peak level 98.8 %
Extraction speed 4.9 X
Range quality 99.9 %
Test CRC 31016D71
Copy CRC 31016D71
Copy OK

No errors occurred

AccurateRip summary

Track 1 not present in database
Track 2 not present in database
Track 3 not present in database
Track 4 not present in database
Track 5 not present in database
Track 6 not present in database
Track 7 not present in database
Track 8 not present in database
Track 9 not present in database
Track 10 not present in database

None of the tracks are present in the AccurateRip database

End of status report
fooCDtect
fooCDtect - foobar2000 + auCDtect, baralgin.

auCDtect: CD records authenticity detector, version 0.8.2
Copyright (c) 2004 Oleg Berngardt. All rights reserved.
Copyright (c) 2004 Alexander Djourik. All rights reserved.

mode: 0

===========================================
Track: 01 - Out of The Darkness
Quality: CDDA 99%
===========================================
Track: 02 - Reflections of Life
Quality: CDDA 100%
===========================================
Track: 03 - Under a Rainbow Sky
Quality: CDDA 100%
===========================================
Track: 04 - Road of Many Challanges
Quality: CDDA 100%
===========================================
Track: 05 - Like a Miracle
Quality: CDDA 100%
===========================================
Track: 06 - Watching the Sun Go Down
Quality: CDDA 100%
===========================================
Track: 07 - Another Friday Night
Quality: CDDA 99%
===========================================
Track: 08 - The Last Horizon
Quality: CDDA 100%
===========================================
Track: 09 - Sea-Shell
Quality: MPEG 80%
===========================================
Track: 10 - Rainbow
Quality: CDDA 100%
===========================================
Тривалість: 01:15:01
Мова: англійська, відсутня (9,10)
Аудіо-кодек: WavPack
Бітрейт: 884 кб/с
Джерело: нетлаб
Додаткова інформація:
Як що Вам кажуть, що українського прог-року не має, то не вірте. Ось він. Зроблений в кращих традиціях цього жанру


Проект Антона Калугіна на Толоці
Karfagen - Дискографія (5 альбомів) (2006-2011) [FLAC]


Якщо Ви справді бажаєте підтримати українське - після прослуховування, якщо музика вам сподобалась,
придбайте ліцензійний диск.
Підтримаймо вітчизняних виконавців!


Срібний реліз (на рейтинг впливає 50% завантаженого)
 Трекер:    Зареєстрований   

Завантажити / скачати українську музику



відео для новачків



 Зареєстрований:   2013-03-31 00:29
 Розмір:   493 MB 
 Оцінка музики:   6.8/10 (Голосів: 9)
   
Ваш часовий пояс: GMT + 2 Години

Нова тема   Відповісти