Завантажити та скачати торренти українською


Нескорений / The Undefeated (2000) DVD5| sub Eng

Нові коментарі

Нова тема   Відповісти
Автор Повідомлення
Demetrios 
VIP


З нами з: 28.01.10
Востаннє: 29.11.16
Повідомлень: 301

2013-03-30 17:08  
Нескорений / The Undefeated (2000) DVD5| sub Eng

Нескорений / The Undefeated (2000) DVD5| sub Eng
Альтернативний постер
Нескорений / The Undefeated (2000) DVD5| sub Eng

Жанр: війна, історичний, драма
Країна: Україна



Кіностудія / кінокомпанія: Національна кіностудія імені О. Довженка
Режисер: Олесь Янчук
Актори: Григорій Гладій, Вікторія Малекторович, Сергій Романюк, Валерій Галицький

Сюжет:
1950 рік. Вже давно закінчилася Друга Світова війна, а на теренах Західної України, в Карпатах ще продовжували збройну боротьбу знесилені, знекровлені, але нескорені духом збройні частини та невеликі боївки Української Повстанської Армії, ще зовсім недавно могутньої, добре організованої та вишколеної, яка змушена була вести нерівну боротьбу на два фронти: спочатку проти німецьких окупантів, а потім - проти більшовицької навали. На чолі Армії стояв видатний Командир: легендарний генерал-хорунжий Роман Шухевич – Тарас Чупринка, долю якого і покладено до основи фільму.


Тривалість: 1:43:21
Якість: DVD-5
Відео:
кодек: MPEG-2 DVD
розмір кадру: 720 х 576
бітрейт: 3 988 кб/с

Аудіо:
мова: українська
переклад: оригінал
кодек: 2.0
бітрейт: 192 кб/с

Джерело озвучення:


Субтитри:
мова: англійська
тип: програмні (м'які)

Додаткові матеріали:
- Трейлери фільмів Олеся Янчука
- Передмова до фільму Вадима Скуратівського, доктора мистецтвознавства (10 хв.)
MediaInfo
General
Complete name : \Undefeated\VIDEO_TS\VTS_01_1.VOB
Format : MPEG-PS
File size : 1 024 MiB
Duration : 33mn 33s
Overall bit rate mode : Variable
Overall bit rate : 4 265 Kbps
Writing library : (c) 1997-2005 Womble Multimedia, Inc. / MPEG Video Wizard (03/2005) / Apr 5 2005

Video
ID : 224 (0xE0)
Format : MPEG Video
Format version : Version 2
Format profile : [email protected]
Format settings, BVOP : Yes
Format settings, Matrix : Custom
Format settings, GOP : M=3, N=15
Duration : 33mn 33s
Bit rate mode : Variable
Bit rate : 3 988 Kbps
Maximum bit rate : 8 500 Kbps
Width : 720 pixels
Height : 576 pixels
Display aspect ratio : 4:3
Frame rate : 25.000 fps
Standard : PAL
Color space : YUV
Chroma subsampling : 4:2:0
Bit depth : 8 bits
Scan type : Interlaced
Scan order : Top Field First
Compression mode : Lossy
Bits/(Pixel*Frame) : 0.385
Stream size : 957 MiB (94%)
Alignment : (c) 1997-2005 Womble Multimedia, Inc. / MPEG Video Wizard (03/2005) / Apr 5 2005
Title : (c) 1997-2005 Womble Multimedia, Inc. / MPEG Video Wizard (03/2005) / Apr 5 2005
Writing library : (c) 1997-2005 Womble Multimedia, Inc. / MPEG Video Wizard (03/2005) / Apr 5 2005

Audio
ID : 189 (0xBD)-128 (0x80)
Format : AC-3
Format/Info : Audio Coding 3
Mode extension : CM (complete main)
Format settings, Endianness : Big
Muxing mode : DVD-Video
Duration : 33mn 33s
Bit rate mode : Constant
Bit rate : 192 Kbps
Channel(s) : 2 channels
Channel positions : Front: L R
Sampling rate : 48.0 KHz
Bit depth : 16 bits
Compression mode : Lossy
Delay relative to video : -40ms
Stream size : 46.1 MiB (5%)

Text
ID : 189 (0xBD)-32 (0x20)
Format : RLE
Format/Info : Run-length encoding
Muxing mode : DVD-Video
Delay relative to video : 1s 40ms

Menu


Джерело:
Особиста оцінка: 0 - не дивився


Золотий реліз (завантажене не впливає на рейтинг)
 Трекер:    Зареєстрований   

Завантажити / скачати фільм українською



відео для новачків



 Зареєстрований:   2013-03-30 17:08
 Розмір:   4.32 GB 
 Оцінка фільму:   9.5/10 (Голосів: 30)
   
torquevamada 
Новенький


З нами з: 09.05.11
Востаннє: 03.12.16
Повідомлень: 3

2013-03-30 17:42  
в мене цей фільм є, але хочу скачат и щоб роздавати! ГЕРОЯМ СЛАВА!!! Час вже пробудитися українському народу, знати своїх героїв та ворогів, час рівнятися не на вигаданих героїв, а справжніх!!! СЛАВА УКРАЇНІ!!!
anatolijreva 
Новенький


З нами з: 10.08.10
Востаннє: 24.11.16
Повідомлень: 12

2013-03-30 17:57  
Дякую за НАШ фільм. Героям Слава!
lpershyi 
Попереджень: 2
Попереджень: 2 


З нами з: 04.01.11
Востаннє: 30.11.16
Повідомлень: 2622

2013-03-30 18:30  
Тут обкладинка користувача Poltavan

Що крім цієї
неофіційної
двд обкладинки, інші не існують? А де оригінал? Невже всі українці купляють російські піратки й торенти записують?

bohdk 
Відео Гуртом - субтитрування
Відео Гуртом - субтитрування


З нами з: 23.10.09
Востаннє: 03.12.16
Повідомлень: 557

2013-03-30 18:42  
На мою думку незалежно від правил трекеру за таке просто необхідно давати золото.
lpershyi 
Попереджень: 2
Попереджень: 2 


З нами з: 04.01.11
Востаннє: 30.11.16
Повідомлень: 2622

2013-03-30 18:54  
bohdk написано:
за таке просто необхідно давати золото.

так потрібно; цей попередній золотий реліз урізаного не повного DVD-5 оригінал відео кружальця DVD-9 відправляти наприклад у архів або на смітник Happy

BOOGud 
VIP


З нами з: 06.03.12
Востаннє: 11.11.16
Повідомлень: 907

2013-06-12 22:23  
а можна десь найти анг саби до цього фільму у форматі srt ?
Ваш часовий пояс: GMT + 2 Години

Нова тема   Відповісти