Завантажити та скачати торренти українською


VA - Українські солоспіви [Золота колекція] (2005) [FLAC] | Folk / Classic

Нові коментарі

Нова тема   Відповісти
Автор Повідомлення
civ 
VIP


З нами з: 16.02.11
Востаннє: 06.12.16
Повідомлень: 429

2013-03-30 08:12  
VA - Українські солоспіви [Золота колекція] (2005) [FLAC] | Folk / Classic

VA - Українські солоспіви [Золота колекція] (2005) [FLAC] | Folk / Classic


Стиль: Folk / Classic
Видавець: Астра Рекордс
Пісні:
    01. Олена Соболєва - Місяцю ясний (романс Оксани з опери «Запорожець за Дунаєм»)
    02. Костянтин Столяр - Сонце низенько (пісня Петра з опери «Наталка Полтавка»)
    03. Валентина Іваненко - Садок вишневий коло хати
    04. Богдан Базиликут - За твої, дівчино
    05. Бела Руденко - Ой, співаночки мої
    06. Василь Бокоч - Серенада
    07. Бела Руденко - Вечірня пісня
    08. Дмитро Гнатюк - Зоре моя вечірняя
    09. Діана Петриненко - Нащо мені чорні брови
    10. Валерій Буймістер - Їхав козак за Дунай
    11. Людмила Юрченко - Ой, не світи, місяченьку
    12. Святослав Пікульський - Не щебечи, соловейку
    13. Євгенія Мірошниченко - Журавка
    14. Микола Кондратюк - Дивлюсь я на небо
    15. Наталія Кравцова - Тихо, тихо Дунай воду несе
    16. Дмитро Гнатюк - Гуде вітер вельми в полі
    17. Євгенія Мірошниченко - Чотири воли пасу я
    18. Анатолій Мокренко - Ой, ти, дівчино, з горіха зерня
    19. Ірина Зябченко - Ой, піду я межи гори
    20. Валерій Буймістер - Чорнії брови, карії очі
    21. Бела Руденко - Соловейко
    22. Володимир Зарков - Ніч яка місячна

Тривалість: 01:16:17
Мова: українська
Аудіо-кодек: FLAC
Бітрейт: 576 кб/с
Джерело: власний ріп
Тип ріпу: image + cue + обкладинки
EAC Log

Exact Audio Copy V1.0 beta 3 from 29. August 2011

EAC extraction logfile from 21. March 2013, 20:49

Various / Українські солоспіви [Золота колекція]

Used drive : MATSHITADVD-RAM UJ8C1 Adapter: 1 ID: 0

Read mode : Secure
Utilize accurate stream : Yes
Defeat audio cache : Yes
Make use of C2 pointers : No

Read offset correction : 6
Overread into Lead-In and Lead-Out : No
Fill up missing offset samples with silence : Yes
Delete leading and trailing silent blocks : No
Null samples used in CRC calculations : Yes
Used interface : Native Win32 interface for Win NT & 2000

Used output format : Internal WAV Routines
Sample format : 44.100 Hz; 16 Bit; Stereo

TOC of the extracted CD

Track | Start | Length | Start sector | End sector
---------------------------------------------------------
1 | 0:00.00 | 4:08.01 | 0 | 18600
2 | 4:08.01 | 2:36.02 | 18601 | 30302
3 | 6:44.03 | 3:09.02 | 30303 | 44479
4 | 9:53.05 | 2:03.02 | 44480 | 53706
5 | 11:56.07 | 2:34.06 | 53707 | 65262
6 | 14:30.13 | 2:56.06 | 65263 | 78468
7 | 17:26.19 | 3:21.06 | 78469 | 93549
8 | 20:47.25 | 4:48.00 | 93550 | 115149
9 | 25:35.25 | 4:05.00 | 115150 | 133524
10 | 29:40.25 | 1:59.02 | 133525 | 142451
11 | 31:39.27 | 2:53.04 | 142452 | 155430
12 | 34:32.31 | 3:32.05 | 155431 | 171335
13 | 38:04.36 | 3:51.03 | 171336 | 188663
14 | 41:55.39 | 2:05.07 | 188664 | 198045
15 | 44:00.46 | 4:25.02 | 198046 | 217922
16 | 48:25.48 | 4:10.01 | 217923 | 236673
17 | 52:35.49 | 4:09.06 | 236674 | 255354
18 | 56:44.55 | 3:29.04 | 255355 | 271033
19 | 60:13.59 | 4:24.06 | 271034 | 290839
20 | 64:37.65 | 3:40.04 | 290840 | 307343
21 | 68:17.69 | 4:45.05 | 307344 | 328723
22 | 73:02.74 | 3:14.05 | 328724 | 343278

Range status and errors

Selected range

Filename C:\Music\Золота колекція\Various - Українські солоспіви [Золота колекція] (2005)\Various - Українські солоспіви [Золота колекція].wav

Peak level 96.7 %
Extraction speed 5.3 X
Range quality 100.0 %
Copy CRC 935DC01A
Copy OK

No errors occurred

AccurateRip summary

Track 1 not present in database
Track 2 not present in database
Track 3 not present in database
Track 4 not present in database
Track 5 not present in database
Track 6 not present in database
Track 7 not present in database
Track 8 not present in database
Track 9 not present in database
Track 10 not present in database
Track 11 not present in database
Track 12 not present in database
Track 13 not present in database
Track 14 not present in database
Track 15 not present in database
Track 16 not present in database
Track 17 not present in database
Track 18 not present in database
Track 19 not present in database
Track 20 not present in database
Track 21 not present in database
Track 22 not present in database

None of the tracks are present in the AccurateRip database

End of status report
Audiochecker

fooCDtect - foobar2000 + auCDtect, baralgin.

auCDtect: CD records authenticity detector, version 0.8.2
Copyright (c) 2004 Oleg Berngardt. All rights reserved.
Copyright (c) 2004 Alexander Djourik. All rights reserved.

mode: 0

===========================================
Track: 01. Місяцю ясний
Quality: CDDA 85%
===========================================
Track: 02. Сонце низенько
Quality: CDDA 100%
===========================================
Track: 03. Садок вишневий коло хати
Quality: CDDA 100%
===========================================
Track: 04. За твої, дівчино
Quality: CDDA 100%
===========================================
Track: 05. Ой, співаночки мої
Quality: CDDA 100%
===========================================
Track: 06. Серенада
Quality: CDDA 49%
===========================================
Track: 07. Вечірня пісня
Quality: MPEG 97%
===========================================
Track: 08. Зоре моя вечірняя
Quality: CDDA 100%
===========================================
Track: 09. Нащо мені чорні брови
Quality: CDDA 100%
===========================================
Track: 10. Їхав козак за Дунай
Quality: CDDA 100%
===========================================
Track: 11. Ой, не світи, місяченьку
Quality: CDDA 99%
===========================================
Track: 12. Не щебечи, соловейку
Quality: MPEG 89%
===========================================
Track: 13. Журавка
Quality: CDDA 87%
===========================================
Track: 14. Дивлюсь я на небо
Quality: CDDA 100%
===========================================
Track: 15. Тихо, тихо Дунай воду несе
Quality: CDDA 100%
===========================================
Track: 16. Гуде вітер вельми в полі
Quality: MPEG 80%
===========================================
Track: 17. Чотири воли пасу я
Quality: CDDA 85%
===========================================
Track: 18. Ой, ти, дівчино, з горіха зерня
Quality: CDDA 54%
===========================================
Track: 19. Ой, піду я межи гори
Quality: CDDA 99%
===========================================
Track: 20. Чорнії брови, карії очі
Quality: CDDA 100%
===========================================
Track: 21. Соловейко
Quality: CDDA 58%
===========================================
Track: 22. Ніч яка місячна
Quality: CDDA 100%
===========================================
Додаткова інформація:
Наразі мова йде про класичне виконання українських народних пісень та арій з відомих українських опер. Класичне – тобто виконання артистами опери, тому диск має в першу чергу зацікавити прихильників саме цього виду мистецтва. З іншого боку, представлені тут твори настільки відомі, що саме з цього диску можна розпочинати знайомство з оперним співом – якщо не вистачає часу чи терпіння на знайомство безпосереднє. Крім того, це зустріч – або ж знайомство – з яскравими виконавцями, яких, переважно, вже неможливо почути на живо, але чия майстерність заслуговує на увагу. Але, власне, можна дивитися на цей диск як на збірку гарних, дуже красивих ліричних творів – і просто отримувати задоволення від гармонійного, тихого настрою, спокою, яким проникнуті ці записи. І останнє, мабуть – найважливіше.

Умка




Якщо Ви справді бажаєте підтримати українське - після прослуховування, якщо музика вам сподобалась, придбайте ліцензійний диск. Підтримаймо вітчизняних виконавців!


Срібний реліз (на рейтинг впливає 50% завантаженого)
 Трекер:    Зареєстрований   

Завантажити / скачати українську музику



відео для новачків



 Зареєстрований:   2013-03-30 08:12
 Розмір:   341 MB 
 Оцінка музики:   7/10 (Голосів: 3)
   
Ваш часовий пояс: GMT + 2 Години

Нова тема   Відповісти