Завантажити та скачати торренти українською


Соліст / The Soloist (2009) AVC Ukr/Eng | sub Ukr/Eng

Нові коментарі

Нова тема   Відповісти
Автор Повідомлення
DеLight 
Відео Гуртом - фільмокрай
Відео Гуртом - фільмокрай


З нами з: 24.08.11
Востаннє: 17.11.16
Повідомлень: 664

2013-03-28 22:20  
Соліст / The Soloist (2009) AVC Ukr/Eng | sub Ukr/Eng

Соліст / The Soloist (2009) AVC Ukr/Eng | sub Ukr/Eng

На основі реальних подій


Постер від damyen




Жанр: біографічний, драма, музичний
Країна: Велика Британія, США, Франція



Кіностудія / кінокомпанія: DreamWorks SKG, Krasnoff Foster Productions, Participant Media, Participant Productions, Studio Canal, Universal Pictures, Working Title Films
Режисер: Джо Райт / Joe Wright
Актори: Джеймi Фокс / Jamie Foxx, Роберт Дауні мол. / Robert Downey Jr., Кетрін Кінер / Catherine Keener, Том Голландер / Tom Hollander, Лісаґей Гамільтон / LisaGay Hamilton, Нелсан Елліс / Nelsan Ellis, Рейчел Гарріс / Rachael Harris, Стівен Рут / Stephen Root, Лоррейн Туссен / Lorraine Toussaint, Джастін Мартін / Justin Martin, Кокає Ампа / Kokayi Ampah, Патрік Таттен / Patrick Tatten, Сюзан Лі / Susane Lee, Маркос Де Сілвес / Marcos De Silvas, Ілля Волок / Ilia Volok та інші

Сюжет:
Журналіст Стів Лопес зустрічає Натаніеля Айерса, колишнього віртуозного музиканта, вимушеного грати на віолончелі на вулицях Лос-Анджелеса. Лопес намагається допомогти безпритульному повернутися до нормального життя, і між ними виникає унікальна дружба, яка змінює долю обох.


Тривалість: 01:57:02
Якість: AVC

Відео:
кодек:
розмір кадру: 1024 x 426
бітрейт: 1 385 кб/с

Аудіо #1:
мова: українська
переклад: багатоголосий закадровий
кодек: 2.0
бітрейт: 192 кб/с

Українською мовою озвучено на студії каналу "Україна"

Аудіо: #2
мова: англійська
переклад: оригінал
кодек: 5.1
бітрейт: 448 кб/с

Субтитри #1-2:
мова: українська, англійська
тип: програмні (м'які)
формат: *.srt

Збережені оригінальні розділи як на Blu-ray


Trailer (HD)


MediaInfo

Код:
General
Unique ID                      : 212020131870849603747871817829710249243 (0x9F819792718714AB8BD4C4F565673D1B)
Complete name                  : D:\Torrents\The Soloist (2009) AVC [Ukr, Eng] [Hurtom].mkv
Format                         : Matroska
Format version                 : Version 4 / Version 2
File size                      : 1.66 GiB
Duration                       : 1h 57mn
Overall bit rate               : 2 027 Kbps
Movie name                     : The Soloist (2009) AVC [Ukr, Eng] [Hurtom] by Delight
Encoded date                   : UTC 2013-03-28 20:03:40
Writing application            : mkvmerge v6.1.0 ('Old Devil') built on Mar  2 2013 14:32:37
Writing library                : libebml v1.3.0 + libmatroska v1.4.0

Video
ID                             : 1
Format                         : AVC
Format/Info                    : Advanced Video Codec
Format profile                 : [email protected]
Format settings, CABAC         : Yes
Format settings, ReFrames      : 8 frames
Codec ID                       : V_MPEG4/ISO/AVC
Duration                       : 1h 57mn
Bit rate                       : 1 385 Kbps
Width                          : 1 024 pixels
Height                         : 426 pixels
Display aspect ratio           : 2.40:1
Frame rate mode                : Constant
Frame rate                     : 23.976 fps
Color space                    : YUV
Chroma subsampling             : 4:2:0
Bit depth                      : 8 bits
Scan type                      : Progressive
Bits/(Pixel*Frame)             : 0.132
Stream size                    : 1.10 GiB (66%)
Title                          : The Soloist (2009) AVC [rip by DenisNN]
Writing library                : core 114 r1924 08d04a4
Encoding settings              : cabac=1 / ref=8 / deblock=1:-2:-2 / analyse=0x3:0x133 / me=umh / subme=9 / psy=1 / psy_rd=1.00:0.20 / mixed_ref=1 / me_range=48 / chroma_me=1 / trellis=2 / 8x8dct=1 / cqm=0 / deadzone=21,11 / fast_pskip=0 / chroma_qp_offset=2 / threads=3 / sliced_threads=0 / nr=0 / decimate=1 / interlaced=0 / constrained_intra=0 / bframes=5 / b_pyramid=2 / b_adapt=2 / b_bias=0 / direct=3 / weightb=1 / open_gop=0 / weightp=2 / keyint=240 / keyint_min=23 / scenecut=40 / intra_refresh=0 / rc_lookahead=100 / rc=2pass / mbtree=1 / bitrate=1385 / ratetol=1.0 / qcomp=0.60 / qpmin=10 / qpmax=51 / qpstep=4 / cplxblur=20.0 / qblur=0.5 / ip_ratio=1.40 / aq=1:1.10
Language                       : English
Default                        : Yes
Forced                         : No

Audio #1
ID                             : 2
Format                         : AC-3
Format/Info                    : Audio Coding 3
Mode extension                 : CM (complete main)
Format settings, Endianness    : Big
Codec ID                       : A_AC3
Duration                       : 1h 57mn
Bit rate mode                  : Constant
Bit rate                       : 192 Kbps
Channel(s)                     : 2 channels
Channel positions              : Front: L R
Sampling rate                  : 48.0 KHz
Bit depth                      : 16 bits
Compression mode               : Lossy
Stream size                    : 161 MiB (9%)
Title                          : 2.0; 192 kbps; багатоголосий закадровий {студія каналу "Україна"}
Language                       : Ukrainian
Default                        : Yes
Forced                         : No

Audio #2
ID                             : 3
Format                         : AC-3
Format/Info                    : Audio Coding 3
Mode extension                 : CM (complete main)
Format settings, Endianness    : Big
Codec ID                       : A_AC3
Duration                       : 1h 57mn
Bit rate mode                  : Constant
Bit rate                       : 448 Kbps
Channel(s)                     : 6 channels
Channel positions              : Front: L C R, Side: L R, LFE
Sampling rate                  : 48.0 KHz
Bit depth                      : 16 bits
Compression mode               : Lossy
Stream size                    : 375 MiB (22%)
Title                          : 5.1; 448 kbps; original
Language                       : English
Default                        : No
Forced                         : No

Text #1
ID                             : 4
Format                         : UTF-8
Codec ID                       : S_TEXT/UTF8
Codec ID/Info                  : UTF-8 Plain Text
Title                          : full
Language                       : Ukrainian
Default                        : No
Forced                         : No

Text #2
ID                             : 5
Format                         : UTF-8
Codec ID                       : S_TEXT/UTF8
Codec ID/Info                  : UTF-8 Plain Text
Title                          : full
Language                       : English
Default                        : No
Forced                         : No

Menu
00:00:00.000                   : :Chapter 01
00:05:00.000                   : :Chapter 02
00:10:00.000                   : :Chapter 03
00:15:00.000                   : :Chapter 04
00:20:00.000                   : :Chapter 05
00:25:00.000                   : :Chapter 06
00:30:00.000                   : :Chapter 07
00:35:00.000                   : :Chapter 08
00:40:00.000                   : :Chapter 09
00:45:00.000                   : :Chapter 10
00:50:00.000                   : :Chapter 11
00:55:00.000                   : :Chapter 12
01:00:00.000                   : :Chapter 13
01:05:00.000                   : :Chapter 14
01:10:00.000                   : :Chapter 15
01:15:00.000                   : :Chapter 16
01:20:00.000                   : :Chapter 17
01:25:00.000                   : :Chapter 18
01:30:00.000                   : :Chapter 19
01:35:00.000                   : :Chapter 20
01:40:00.000                   : :Chapter 21
01:45:00.000                   : :Chapter 22
01:50:00.000                   : :Chapter 23
01:55:00.000                   : :Chapter 24

Світлини



















Джерело: &
За запис звуку подяка xslim та POMEO. За фільмографії подяка Neo777
Особиста оцінка: 8,5


 Трекер:    Зареєстрований   

Завантажити / скачати фільм українською



відео для новачків



 Зареєстрований:   2013-03-28 22:20
 Розмір:   1.66 GB 
 Оцінка фільму:   9.7/10 (Голосів: 29)
   
DеLight 
Відео Гуртом - фільмокрай
Відео Гуртом - фільмокрай


З нами з: 24.08.11
Востаннє: 17.11.16
Повідомлень: 664

2013-03-28 23:52  
Пане fazza, навіщо Ви змінили постер? Те, що на ньому три слова українською, не означає, що його потрібно ставити головним. Постер, в першу чергу, має бути якісним і повторювати оригінал, а тут... я й сам можу таке зробити без будь-яких фотошопів і навиків. Додав, як альтернативний, але його все одно потрібно переробляти. Будь ласка, не змінюйте.
tcorp 
Новенький


З нами з: 23.02.09
Востаннє: 30.10.16
Повідомлень: 2

2013-03-29 09:43  
Дякую дуже за реліз, фільм вартий уваги однозначно...
volodymyr_sav 
VIP


З нами з: 07.10.13
Востаннє: 05.12.16
Повідомлень: 794

2016-10-16 19:23  
Для мене цей фільм видався впершу чергу дивним: гра акторів хороша, розвиток сюжету цікавий і логічний, Джеймі чудово грає ролі про дивних музикантів(я саме після "Рея" почав його помічати), але бажаних емоцій перегляд не викликав, бо проблеми америцьких бомжів мене чомусь не зачіпають. 4/10 на раз подивитись, хоча визнаю гарна музика присутня і мені це подобається
Ваш часовий пояс: GMT + 2 Години

Нова тема   Відповісти