Завантажити та скачати торренти українською


Скарб Амазонки / The Rundown / Welcome to the Jungle (2003) 1080p 2xUkr/Eng | Sub Eng

Нові коментарі

Нова тема   Відповісти
Автор Повідомлення
Anonymous 







2013-03-28 13:07  
Скарб Амазонки (Скарби Амазонки) / The Rundown / Welcome to the Jungle (2003) 1080p 2xUkr/Eng | Sub Eng

Скарб Амазонки / The Rundown / Welcome to the Jungle (2003) 1080p 2xUkr/Eng | Sub Eng


Жанр: бойовик, трилер, комедія, пригоди
Країна: США



Кіностудія / кінокомпанія: Columbia Pictures Corporation, Universal Pictures, WWE Films
Режисер: Пітер Берг / Peter Berg
Актори: Двейн "Скеля" Джонсон / Dwayne Johnson, Шон Вільям Скотт / Seann William Scott, Росаріо Доусон / Rosario Dawson, Крістофер Вокен / Christopher Walken, Евен Бремнер / Ewen Bremner, Джон Грайс / Jon Gries

Сюжет:
Якщо надійшла пропозиція, від якої неможливо відмовитись, — ось і не відмовляйся! В якості розрахунку заборгованості перед мафією інтелігентному викидайлу Беку (Двейн "Скеля" Джонсон) пропонують доставити додому афериста Тревіса, блудного сина "хрещеного батька", що загубився у джунглях Амазонки.

Але прибувши на місце, герой виявляє, що шансів доставити свій вантаж неушкодженим небагато. Безталанний Тревіс перейшов дорогу місцевому авторитету Хетчеру, розпочавши полювання за легендарним золотим ідолом індіанців, на який той давно мріяв накласти лапу. Беку не залишається жодного вибору, як закликати на допомогу свої почуття гумору, сталеві м'язи і вступити в неймовірну гонитву за скарбом, поки його "клієнта" не згодували ягуарам!..


рейтинг MPAA: PG-13 - дітям до 13 років перегляд не бажаний
Вікова категорія: 12+

Тривалість: 01:44:15
Якість: 1080p
Відео:
кодек:
розмір кадру: 1920x816
бітрейт: 9189 кб/с

Аудіо # 1:
мова: українська
переклад: багатоголосий закадровий
кодек: 5.1
бітрейт: 448 кб/с
ролі озвучили: Двейн Джонсон — Олег Стальчук, Анатолій Пашнін, Дмитро Терещук і один жіночий (голос поки не встановлено)

Аудіо # 2:
мова: українська
переклад: багатоголосий закадровий
кодек: 5.1
бітрейт: 448 кб/с
ролі озвучили: Двейн Джонсон — Владислав Пупков, Евен Бремнер — Дмитро Гаврилов, Анатолій Пашнін і Юлія Перенчук

Аудіо # 3:
мова: англійська
переклад: оригінал
кодек: 5.1
бітрейт: 448 кб/с

Субтитри:
мова: англійська
тип: програмні (м'які)
формат: *.srt

Збережено оригінальні розділи, як на Blu-ray.
MediaInfo
General
Unique ID : 230129082595888224524636543222050451073 (0xAD213FC6A0DD1F28A9085CD5B72FEE81)
Complete name : The Rundown.2003.1080p.2xUkr.Eng.mkv
Format : Matroska
Format version : Version 4 / Version 2
File size : 7.66 GiB
Duration : 1h 44mn
Overall bit rate : 10.5 Mbps
Movie name : Скарб Амазонки / The Rundown / Сокровище Амазонки (2003), release by igor911 for Hurtom.com
Encoded date : UTC 2013-03-28 08:27:43
Writing application : mkvmerge v6.1.0 ('Old Devil') built on Mar 2 2013 14:32:37
Writing library : libebml v1.3.0 + libmatroska v1.4.0

Video
ID : 1
Format : AVC
Format/Info : Advanced Video Codec
Format profile : [email protected]
Format settings, CABAC : Yes
Format settings, ReFrames : 4 frames
Codec ID : V_MPEG4/ISO/AVC
Duration : 1h 44mn
Bit rate : 9 189 Kbps
Width : 1 920 pixels
Height : 816 pixels
Display aspect ratio : 2.35:1
Frame rate mode : Constant
Frame rate : 23.976 fps
Color space : YUV
Chroma subsampling : 4:2:0
Bit depth : 8 bits
Scan type : Progressive
Bits/(Pixel*Frame) : 0.245
Stream size : 6.53 GiB (85%)
Title : Скарб Амазонки / The Rundown / Сокровище Амазонки (2003) rip by delia [FREEISLAND]
Writing library : core 129 r2245kMod bc13772
Encoding settings : cabac=1 / ref=4 / deblock=1:-3:-3 / analyse=0x3:0x113 / me=umh / subme=10 / psy=1 / fade_compensate=0.00 / psy_rd=1.05:0.05 / mixed_ref=1 / me_range=48 / chroma_me=1 / trellis=2 / 8x8dct=1 / cqm=0 / deadzone=21,11 / fast_pskip=0 / chroma_qp_offset=-3 / threads=6 / lookahead_threads=1 / sliced_threads=0 / nr=0 / decimate=1 / interlaced=0 / bluray_compat=0 / constrained_intra=0 / bframes=9 / b_pyramid=2 / b_adapt=2 / b_bias=0 / direct=3 / weightb=1 / open_gop=0 / weightp=2 / keyint=240 / keyint_min=23 / scenecut=40 / intra_refresh=0 / rc=2pass / mbtree=0 / bitrate=9189 / ratetol=1.0 / qcomp=0.70 / qpmin=8 / qpmax=51 / qpstep=4 / cplxblur=20.0 / qblur=0.5 / ip_ratio=1.30 / pb_ratio=1.20 / aq=3:0.80
Language : English
Default : Yes
Forced : No
Matrix coefficients : BT.709

Audio #1
ID : 2
Format : AC-3
Format/Info : Audio Coding 3
Mode extension : CM (complete main)
Format settings, Endianness : Big
Codec ID : A_AC3
Duration : 1h 44mn
Bit rate mode : Constant
Bit rate : 448 Kbps
Channel(s) : 6 channels
Channel positions : Front: L C R, Side: L R, LFE
Sampling rate : 48.0 KHz
Bit depth : 16 bits
Compression mode : Lossy
Stream size : 334 MiB (4%)
Title : MVO ICTV 5.1 448 kbps [Hurtom-_oles]
Language : Ukrainian
Default : Yes
Forced : No

Audio #2
ID : 3
Format : AC-3
Format/Info : Audio Coding 3
Mode extension : CM (complete main)
Format settings, Endianness : Big
Codec ID : A_AC3
Duration : 1h 44mn
Bit rate mode : Constant
Bit rate : 448 Kbps
Channel(s) : 6 channels
Channel positions : Front: L C R, Side: L R, LFE
Sampling rate : 48.0 KHz
Bit depth : 16 bits
Compression mode : Lossy
Stream size : 334 MiB (4%)
Title : MVO TRK Ukraina 5.1 448 kbps [Hurtom-_oles]
Language : Ukrainian
Default : No
Forced : No

Audio #3
ID : 4
Format : AC-3
Format/Info : Audio Coding 3
Mode extension : CM (complete main)
Format settings, Endianness : Big
Codec ID : A_AC3
Duration : 1h 44mn
Bit rate mode : Constant
Bit rate : 448 Kbps
Channel(s) : 6 channels
Channel positions : Front: L C R, Side: L R, LFE
Sampling rate : 48.0 KHz
Bit depth : 16 bits
Compression mode : Lossy
Stream size : 334 MiB (4%)
Title : Original
Language : English
Default : No
Forced : No

Text
ID : 5
Format : UTF-8
Codec ID : S_TEXT/UTF8
Codec ID/Info : UTF-8 Plain Text
Title : Eng full
Language : English
Default : No
Forced : No

Menu
00:00:00.000 : en:The Retrieval Expert
00:08:58.996 : en:One Last Job
00:11:31.816 : en:Brazil
00:14:33.873 : en:Flower for Mariana
00:16:29.113 : en:One Man's Refrigerator
00:20:48.956 : en:Option C
00:26:56.698 : en:Enjoy the Fall
00:29:17.881 : en:The Wrong Foot
00:31:57.832 : en:They Got My Tooth
00:33:46.858 : en:No Breaks
00:36:29.979 : en:Pee Break
00:38:48.326 : en:Monkey Business
00:42:17.034 : en:Rebels
00:48:35.120 : en:Why We Fight
00:52:06.957 : en:The Cleanup
00:54:22.968 : en:A Deal
00:58:42.977 : en:Beyond the Moving Curtain
01:05:30.301 : en:Konlobos (with a "K")
01:09:13.482 : en:I Wanna Go Home
01:10:36.065 : en:Change of Plan
01:14:44.688 : en:The Wrong Choice
01:16:15.320 : en:Hell in El Dorado
01:21:46.318 : en:Force of One
01:27:10.058 : en:Hatcher's Last Option
01:30:18.079 : en:Delivering on the Deal
01:32:49.397 : en:A Headache Like You
01:35:49.160 : en:No More Pushing
01:37:19.124 : en:End Titles


Джерела та подяки: ріп відео, оригінальні доріжка та субтитри - delia (FREEISLAND); українські доріжки - _oles (зведення), xSlim та drakon87 (запис з ТБ); постер - realnitro (всі - Гуртом).


Срібний реліз (на рейтинг впливає 50% завантаженого)
 Трекер:    Зареєстрований   

Завантажити / скачати фільм українською



відео для новачків



 Зареєстрований:   2013-03-28 13:07
 Розмір:   7.66 GB 
 Оцінка фільму:   5.9/10 (Голосів: 23)
   
Інші релізи
Anonymous 







2013-03-28 13:34  
ЗАЛИШАЙТЕСЬ ЯКОМОГА ДОВШЕ НА РОЗДАЧІ !

СКАЧАВ САМ - ДАЙ СКАЧАТИ ІНШИМ

waloha 
VIP


З нами з: 29.12.09
Востаннє: 01.12.16
Повідомлень: 323

2013-03-31 18:05  
З яким перекладом ліпше дивитися ?!?
Anonymous 







2013-03-31 19:54  
Мені більше сподобалась озвучка ICTV.
olimpian1 
Новенький


З нами з: 19.10.13
Востаннє: 03.12.16
Повідомлень: 20

2016-08-03 07:38  
Чудовий, легкий фільм з хорошим екшеном та гумором. Дякую.
Ваш часовий пояс: GMT + 2 Години

Нова тема   Відповісти