Завантажити та скачати торренти українською


Офіціантка / Waitress (2007) AVC Ukr/Eng | sub Eng

Нові коментарі

Нова тема   Відповісти
Останній раз роздавалося 8pool (2016-12-04)
Автор Повідомлення
DеLight 
Відео Гуртом - фільмокрай
Відео Гуртом - фільмокрай


З нами з: 24.08.11
Востаннє: 17.11.16
Повідомлень: 664

2013-03-25 22:30  
Офіціантка / Waitress (2007) AVC Ukr/Eng | sub Eng

Офіціантка / Waitress (2007) AVC Ukr/Eng | sub Eng

«Рецепту любові не існує»


Альтернативні обкладинки






Жанр: драма, комедія, романтичний
Країна: США



Кіностудія / кінокомпанія: Night and Day Pictures
Режисер: Адріен Шеллі / Adrienne Shelly
Актори: Кері Рассел / Keri Russell, Натан Філліон / Nathan Fillion, Шеріл Хайнс / Cheryl Hines, Джеремі Сісто / Jeremy Sisto, Енді Ґріфіт / Andy Griffith, Адріен Шеллі / Adrienne Shelly, Едді Джемісон / Eddie Jemison, Лью Темпл / Lew Temple, Дарбі Станчфілд / Darby Stanchfield та інші

Сюжет:
Черрі працює в забігайлівці одного з провінційних містечок на півдні США. Коли вона дізнається, що вагітна, то вирішує кардинально змінити своє життя. Відносини з інфантильним чоловіком Ерлом вона продовжувати більше не збирається. Черрі вважає, що всім її надіям на краще життя не судилося збутися, але тут в містечку з'являється красень-доктор.


Тривалість: 01:43:23
Якість: AVC

Відео:
кодек:
розмір кадру: 1024 x 576
бітрейт: 1,75 Мб/с

Аудіо #1:
мова: українська
переклад: професійний дубльований
кодек: 2.0
бітрейт: 256 кб/с

Джерело озвучення:


Аудіо #2:
мова: англійська
переклад: оригінал
кодек: 2.0
бітрейт: 256 кб/с

Субтитри: SDH
мова: англійська
тип: програмні (м'які)
формат: *.srt


Trailer


MediaInfo

Код:
General
Unique ID                      : 247936615110008878348096023500628914116 (0xBA86DAEA213D66ADA65FE20F01C36FC4)
Complete name                  : D:\Torrents\Waitress (2007) AVC [Ukr, Eng] [Hurtom].mkv
Format                         : Matroska
Format version                 : Version 4 / Version 2
File size                      : 1.63 GiB
Duration                       : 1h 43mn
Overall bit rate               : 2 264 Kbps
Movie name                     : Waitress (2007) AVC [Ukr, Eng] [Hurtom] by Delight
Encoded date                   : UTC 2013-03-25 18:04:54
Writing application            : mkvmerge v6.1.0 ('Old Devil') built on Mar  2 2013 14:32:37
Writing library                : libebml v1.3.0 + libmatroska v1.4.0

Video
ID                             : 1
Format                         : AVC
Format/Info                    : Advanced Video Codec
Format profile                 : [email protected]
Format settings, CABAC         : Yes
Format settings, ReFrames      : 8 frames
Codec ID                       : V_MPEG4/ISO/AVC
Duration                       : 1h 43mn
Bit rate                       : 1 750 Kbps
Width                          : 1 024 pixels
Height                         : 576 pixels
Display aspect ratio           : 16:9
Frame rate mode                : Constant
Frame rate                     : 25.000 fps
Color space                    : YUV
Chroma subsampling             : 4:2:0
Bit depth                      : 8 bits
Scan type                      : Progressive
Bits/(Pixel*Frame)             : 0.119
Stream size                    : 1.23 GiB (75%)
Title                          : Waitress (2007) AVC
Writing library                : core 115 r1937 aa21558
Encoding settings              : cabac=1 / ref=8 / deblock=1:-1:-1 / analyse=0x3:0x133 / me=umh / subme=7 / psy=1 / psy_rd=1.00:0.10 / mixed_ref=1 / me_range=16 / chroma_me=1 / trellis=2 / 8x8dct=1 / cqm=0 / deadzone=21,11 / fast_pskip=0 / chroma_qp_offset=-3 / threads=6 / sliced_threads=0 / nr=0 / decimate=1 / interlaced=0 / bluray_compat=0 / constrained_intra=0 / bframes=4 / b_pyramid=2 / b_adapt=2 / b_bias=0 / direct=3 / weightb=1 / open_gop=0 / weightp=2 / keyint=250 / keyint_min=25 / scenecut=40 / intra_refresh=0 / rc_lookahead=50 / rc=2pass / mbtree=1 / bitrate=1750 / ratetol=1.0 / qcomp=0.60 / qpmin=0 / qpmax=69 / qpstep=4 / cplxblur=20.0 / qblur=0.5 / ip_ratio=1.40 / aq=1:1.00
Language                       : English
Default                        : Yes
Forced                         : No

Audio #1
ID                             : 2
Format                         : AC-3
Format/Info                    : Audio Coding 3
Mode extension                 : CM (complete main)
Format settings, Endianness    : Big
Codec ID                       : A_AC3
Duration                       : 1h 43mn
Bit rate mode                  : Constant
Bit rate                       : 256 Kbps
Channel(s)                     : 2 channels
Channel positions              : Front: L R
Sampling rate                  : 48.0 KHz
Bit depth                      : 16 bits
Compression mode               : Lossy
Stream size                    : 189 MiB (11%)
Title                          : 2.0; 256 kbps; професійний дубльований {1+1}
Language                       : Ukrainian
Default                        : Yes
Forced                         : No

Audio #2
ID                             : 3
Format                         : AC-3
Format/Info                    : Audio Coding 3
Mode extension                 : CM (complete main)
Format settings, Endianness    : Big
Codec ID                       : A_AC3
Duration                       : 1h 43mn
Bit rate mode                  : Constant
Bit rate                       : 256 Kbps
Channel(s)                     : 2 channels
Channel positions              : Front: L R
Sampling rate                  : 48.0 KHz
Bit depth                      : 16 bits
Compression mode               : Lossy
Stream size                    : 189 MiB (11%)
Title                          : 2.0; 256 kbps; original
Language                       : English
Default                        : No
Forced                         : No

Text
ID                             : 4
Format                         : UTF-8
Codec ID                       : S_TEXT/UTF8
Codec ID/Info                  : UTF-8 Plain Text
Title                          : SDH
Language                       : English
Default                        : No
Forced                         : No

Світлини











Джерело: &
За запис звуку подяка xslim і ratbol. За постер подяка somnambula
Особиста оцінка: 7


 Трекер:    Зареєстрований   

Завантажити / скачати фільм українською



відео для новачків



 Зареєстрований:   2013-03-25 22:30
 Розмір:   1.63 GB 
 Оцінка фільму:   8.9/10 (Голосів: 18)
   
Інші релізи
   Офіціантка / Waitress (2007) 720p Ukr/Eng | sub Eng Загора  2 / 0   4.5 GB   2016-06-05 12:58 
   Офіціантка / Waitress (2007) Ukr/Eng | Sub Eng karvai0  4 / 1   1.74 GB   2014-05-04 14:17 
ewgenus 
Поважний учасник


З нами з: 03.03.09
Востаннє: 13.10.16
Повідомлень: 194

2013-03-26 20:55  
Коли буде .AVI версія?
Західняк 
Новенький


З нами з: 02.03.09
Востаннє: 04.12.16
Повідомлень: 22

2013-03-26 22:28  
Фільм варто переглядати? По опису більше для прекрасної половини людства зняли... Wide grin
DеLight 
Відео Гуртом - фільмокрай
Відео Гуртом - фільмокрай


З нами з: 24.08.11
Востаннє: 17.11.16
Повідомлень: 664

2013-03-26 23:18  
ewgenus написано:
Коли буде .AVI версія?
Вибачайте, такі формати не використовую.
Західняк написано:
По опису більше для прекрасної половини людства зняли...
Ви недалекі від правди. Я, особисто, люблю час від часу й таке переглянути.
knedlyk 
Поважний учасник


З нами з: 08.07.08
Востаннє: 16.11.16
Повідомлень: 220

2013-03-27 21:45  
Фільм страшна муть, так сказала моя прекрасна половина.
По перше, гінеколог трахає вагітну не від нього пацієнтку. Круто, навіть незважаючи на то, що чоловік у неї не фонтан. А в самого є дружина, причому в тій самій лікарні, та ще й дружина є ординатором, ще й при чому досить так нічого собі зовні, і до того ще й любить свого чоловіка. Кінець такий собі, героїня родить, і, маючи вже лялю, посилає всіх подалі, включно з дохтуром, але не подружок, для яких відкриває на виграні гроші забігайлівку. Пошкодували, що подивилися, стер відразу.

MisterR 
Поважний учасник


З нами з: 18.06.08
Востаннє: 29.11.16
Повідомлень: 198

2013-03-29 19:11  
knedlyk, цілком вичерпна рецензія Happy От тільки може варто було взяти у спойлер?
zaika 
VIP


З нами з: 01.07.12
Востаннє: 03.12.16
Повідомлень: 947

2015-02-24 17:47  
Чудовий фільм. Простий, добрий. А ще Кері Рассел. Прекрасно зіграла. До того ж вона - ну типова українка. Поведінка, зовнішні ознаки - ніби родом з Черкаської, чи Полтавської обл. Подивився Вікіпедію. Ніби ні. Батьки типові американці. А може в роду хтось був українець?
А ось озвучка нікудишня. Голоси, особливо подруг Джини, якісь неприродні, непрофесіональні. І тим не менше - 8/10.

hetzendorf 
Свій


З нами з: 23.07.15
Востаннє: 03.12.16
Повідомлень: 148

2016-07-11 00:51  
Ну от чому добрі, годні й гідні рецензії не пишуть у темах з нормальним (HD і вище) розміром кадру?

knedlyk, абсолютно з Вами згоден, кому цікаво, моя рецензія тамочки.

Ваш часовий пояс: GMT + 2 Години

Нова тема   Відповісти