Завантажити та скачати торренти українською


13 привидів / Тринадцять привидів / Thir13en Ghosts (2001) 720p 2xUkr/Eng | Sub Eng

Нові коментарі

Нова тема   Відповісти
Автор Повідомлення
hellforces 
VIP


З нами з: 25.06.08
Востаннє: 11.11.16
Повідомлень: 1556

2013-03-25 14:02  
13 привидів / Тринадцять привидів / Thir13en Ghosts (2001) 720p 2xUkr/Eng | Sub Eng


Альтернативний постер:


Жанр: жахи, фантастика, трилер
Країна: США, Канада



Режисери: Стів Бек (Steve Beck)
Актори:Тоні Шелуб (Tony Shalhoub), Ембет Девідц (Embeth Davidtz), Метью Ліллард (Matthew Lillard), Шеннон Елізабет (Shannon Elizabeth), Алек Робертс (Alec Roberts), Ебігейл Мевіті (JR Bourne), Ра Дигга (Rah Digga) та інші.

Сюжет:
Після смерті свого дивного дядечка Сайруса Артур Критикос успадкував його не менш дивний будинок. В цій чудернацькій будівлі всі стіни та підлога з скла, прикрашеного латинськими заклинаннями. В цьому будинкові автоматичні двері живуть своїм життям, відкриваючись та закриваючись в ритмі, недоступному людському розумінню. Не одразу Артур збагне, що, переступисши поріг цього жахливого особняка, він виповнить злу волю Сайруса і звільнить дюжину мстивих привидів, що живуть в підвалі. І тоді енергія духів приведе в дію агрегат, що відчиняє шлях до всієї міці потустороннього світу. Але для цього потрібно, щоб до чорного зодіаку дванадцяти привидів додався ще один…


Тривалість: 01:30:48
Якість: 720p
Відео:
кодек:
розмір кадру: 1280x688
бітрейт: 6252 кб/с

Аудіо #1:
мова: українська
переклад: багатоголосий закадровий 13 привидів / Тринадцять привидів / Thir13en Ghosts (2001) 720p 2xUkr/Eng | Sub Eng
кодек: 5.1
бітрейт: 384 кб/с

Аудіо #2: (до перших 10-ти хвилин озвучка від 2+2)
мова: українська
переклад: багатоголосий закадровий 13 привидів / Тринадцять привидів / Thir13en Ghosts (2001) 720p 2xUkr/Eng | Sub Eng
кодек: 5.1
бітрейт: 384 кб/с

Аудіо #3:
мова: англійська
переклад: оригінал
кодек: 5.1
бітрейт: 640 кб/с

Субтитри:
мова: англійська
тип: програмні (м'які)
формат: *.srt

MediaInfo
General
Unique ID : 181686547767118651440176023747885252984 (0x88AF8E689BDA20EEADFCBA45677BC178)
Complete name : D:\Фільми\Thir13en Ghosts (2001) 720p [Hurtom] 2xUkr.Eng.mkv
Format : Matroska
Format version : Version 2
File size : 4.86 GiB
Duration : 1h 30mn
Overall bit rate : 7 662 Kbps
Encoded date : UTC 2013-03-25 11:28:13
Writing application : mkvmerge v5.8.0 ('No Sleep / Pillow') built on Sep 2 2012 15:37:04
Writing library : libebml v1.2.3 + libmatroska v1.3.0

Video
ID : 1
Format : AVC
Format/Info : Advanced Video Codec
Format profile : [email protected]
Format settings, CABAC : Yes
Format settings, ReFrames : 8 frames
Codec ID : V_MPEG4/ISO/AVC
Duration : 1h 30mn
Bit rate : 6 252 Kbps
Width : 1 280 pixels
Height : 688 pixels
Display aspect ratio : 1.85:1
Frame rate mode : Constant
Frame rate : 23.976 fps
Color space : YUV
Chroma subsampling : 4:2:0
Bit depth : 8 bits
Scan type : Progressive
Bits/(Pixel*Frame) : 0.296
Stream size : 3.87 GiB (80%)
Title : Hurtom.com
Writing library : core 56 svn-680
Encoding settings : cabac=1 / ref=5 / deblock=1:-1:-1 / analyse=0x1:0 / me=umh / subme=7 / brdo=1 / mixed_ref=1 / me_range=16 / chroma_me=1 / trellis=1 / 8x8dct=0 / cqm=0 / deadzone=21,11 / chroma_qp_offset=0 / threads=3 / nr=0 / decimate=1 / mbaff=0 / bframes=3 / b_pyramid=1 / b_adapt=1 / b_bias=0 / direct=1 / wpredb=1 / bime=1 / keyint=250 / keyint_min=25 / scenecut=40(pre) / rc=2pass / bitrate=6252 / ratetol=1.0 / rceq='blurCplx^(1-qComp)' / qcomp=0.60 / qpmin=10 / qpmax=51 / qpstep=4 / cplxblur=20.0 / qblur=0.5 / ip_ratio=1.40 / pb_ratio=1.30
Default : Yes
Forced : No

Audio #1
ID : 2
Format : AC-3
Format/Info : Audio Coding 3
Mode extension : CM (complete main)
Format settings, Endianness : Big
Codec ID : A_AC3
Duration : 1h 30mn
Bit rate mode : Constant
Bit rate : 384 Kbps
Channel(s) : 6 channels
Channel positions : Front: L C R, Side: L R, LFE
Sampling rate : 48.0 KHz
Bit depth : 16 bits
Compression mode : Lossy
Stream size : 249 MiB (5%)
Title : 5.1 ~ 384 kbps
Language : Ukrainian
Default : Yes
Forced : No

Audio #2
ID : 3
Format : AC-3
Format/Info : Audio Coding 3
Mode extension : CM (complete main)
Format settings, Endianness : Big
Codec ID : A_AC3
Duration : 1h 30mn
Bit rate mode : Constant
Bit rate : 384 Kbps
Channel(s) : 6 channels
Channel positions : Front: L C R, Side: L R, LFE
Sampling rate : 48.0 KHz
Bit depth : 16 bits
Compression mode : Lossy
Stream size : 249 MiB (5%)
Title : 5.1 ~ 384 kbps
Language : Ukrainian
Default : No
Forced : No

Audio #3
ID : 4
Format : AC-3
Format/Info : Audio Coding 3
Mode extension : CM (complete main)
Format settings, Endianness : Big
Codec ID : A_AC3
Duration : 1h 30mn
Bit rate mode : Constant
Bit rate : 640 Kbps
Channel(s) : 6 channels
Channel positions : Front: L C R, Side: L R, LFE
Sampling rate : 48.0 KHz
Bit depth : 16 bits
Compression mode : Lossy
Stream size : 416 MiB (8%)
Title : 5.1 ~ 640 kbps
Language : English
Default : No
Forced : No

Text
ID : 5
Format : UTF-8
Codec ID : S_TEXT/UTF8
Codec ID/Info : UTF-8 Plain Text
Language : English
Default : Yes
Forced : No
Скріншоти:













Висловлюю щиру подяку:
POMEO - за наданий сирий звук від 2+2
SweetN - за наданий сирий звук від К1
Lan - за вдосконалення звукових доріжок
hellforces - за українізовані постери



Срібний реліз (на рейтинг впливає 50% завантаженого)
 Трекер:    Зареєстрований   

Завантажити / скачати фільм українською



відео для новачків



 Зареєстрований:   2013-03-25 15:16
 Розмір:   4.86 GB 
 Оцінка фільму:   9.2/10 (Голосів: 10)
   
skuline 
Свій


З нами з: 17.12.11
Востаннє: 11.12.16
Повідомлень: 114

2013-03-28 17:22  
Класний жахливчик . Мені сподобався
hellforces 
VIP


З нами з: 25.06.08
Востаннє: 11.11.16
Повідомлень: 1556

2013-03-29 01:13  
це перше кіно яке я подивився в кінотеатрі 8\10
Ліхтарник 
VIP


З нами з: 16.09.14
Востаннє: 11.12.16
Повідомлень: 313

2016-05-01 08:20  
Роздайте!!!
Ваш часовий пояс: GMT + 2 Години

Нова тема   Відповісти