Завантажити та скачати торренти українською


Сексдрайв / Sex Drive (2008) 1080p Ukr/Eng | sub Ukr/Eng

Нові коментарі

Нова тема   Відповісти
Автор Повідомлення
Anonymous 







2013-03-24 12:26  
Сексдрайв / Sex Drive (2008) 1080p Ukr/Eng | sub Ukr/Eng



Альтернативний постер



Жанр: мелодрама, комедія, пригоди
Країна: США



Кіностудія / кінокомпанія: Summit Entertainment, Alloy Entertainment, Goldcrest Pictures
Режисер: Шон Андерс (Sean Anders)
Актори: Джош Цуккерман (Josh Zuckerman), Аманда Крю (Amanda Crew), Кларк Дьюк (Clark Duke), Джеймс Марсден (James Marsden), Сет Грін (Seth Green), Еліс Гречин (Alice Greczyn)

Сюжет:
Вісімнадцятирічний старшокласник Йен Лафферті більше не в змозі терпіти кепкування з боку свого самовдоволеного старшого брата Рекса, його 14-річний молодший брат явно набагато більше досягає успіху на любовному фронті, а на роботі в закусочній теж дістаються одні приниження. Що ще гірше, наближається час вступу в коледж, а він все ніяк не може розлучитися з невинністю, ризикуючи виглядати там повним невдахою.

Намагаючись виправити положення, Йен звертається до допомоги Інтернету і незабаром знайомиться з чарівною блондинкою, яка, судячи з усього, просто мріє зустрітися з ним. Єдина проблема полягає в тому, що для зустрічі з дівчиною своєї мрії Йену необхідно подолати 500 миль між Чикаго і невеликим містечком Ноксвіллем. У відчайдушному кроці Йен наважується запозичити дорогий і престижний Понтіак старшого брата і разом зі своїми друзями Ленсом і Феліцією відправляється в подорож, що приводить до найнепередбачуваніших наслідків для трьох героїв.


рейтинг MPAA: R - особам до 17 років обов'язкова присутність батьків або дорослого опікуна
Вікова категорія: 16+

Тривалість: 01:49:22
Якість: 1080p
Відео:
кодек:
розмір кадру: 1920x1080
бітрейт: 9762 кб/с

Аудіо # 1:
мова: українська
переклад: двоголосий закадровий
кодек: 5.1
бітрейт: 448 кб/с

Аудіо # 2:
мова: англійська
переклад: оригінал
кодек: 5.1
бітрейт: 448 кб/с

Субтитри # 1:
мова: українська
тип: програмні (м'які)
формат: *.srt

Субтитри # 2:
мова: англійська
тип: програмні (м'які)
формат: *.ass

Збережено оригінальні розділи, як на Blu-ray.
MediaInfo
General
Unique ID : 209034786526039963636854974143154331979 (0x9D42A2AEBEED1CEEB4223211162BA14B)
Complete name : Sex.Drive.2008..1080p.Ukr.Eng.mkv
Format : Matroska
Format version : Version 4 / Version 2
File size : 8.14 GiB
Duration : 1h 49mn
Overall bit rate : 10.6 Mbps
Movie name : Сексдрайв / Sex Drive (2008) release by igor911 for Hurtom.com
Encoded date : UTC 2013-03-24 09:58:41
Writing application : mkvmerge v6.1.0 ('Old Devil') built on Mar 2 2013 14:32:37
Writing library : libebml v1.3.0 + libmatroska v1.4.0

Video
ID : 1
Format : AVC
Format/Info : Advanced Video Codec
Format profile : [email protected]
Format settings, CABAC : Yes
Format settings, ReFrames : 4 frames
Codec ID : V_MPEG4/ISO/AVC
Duration : 1h 49mn
Bit rate : 9 762 Kbps
Width : 1 920 pixels
Height : 1 080 pixels
Display aspect ratio : 16:9
Frame rate mode : Constant
Frame rate : 23.976 fps
Color space : YUV
Chroma subsampling : 4:2:0
Bit depth : 8 bits
Scan type : Progressive
Bits/(Pixel*Frame) : 0.196
Stream size : 7.29 GiB (90%)
Title : Сексдрайв / Sex Drive (2008) [NoLimits-Team]
Writing library : core 129 r2245 bc13772
Encoding settings : cabac=1 / ref=4 / deblock=1:0:0 / analyse=0x3:0x133 / me=umh / subme=11 / psy=1 / psy_rd=1.00:0.00 / mixed_ref=1 / me_range=64 / chroma_me=1 / trellis=2 / 8x8dct=1 / cqm=0 / deadzone=21,11 / fast_pskip=0 / chroma_qp_offset=-2 / threads=9 / lookahead_threads=1 / sliced_threads=0 / nr=0 / decimate=1 / interlaced=0 / bluray_compat=0 / constrained_intra=0 / bframes=12 / b_pyramid=2 / b_adapt=2 / b_bias=0 / direct=3 / weightb=1 / open_gop=0 / weightp=2 / keyint=240 / keyint_min=23 / scenecut=40 / intra_refresh=0 / rc_lookahead=60 / rc=2pass / mbtree=1 / bitrate=9762 / ratetol=1.0 / qcomp=0.60 / qpmin=0 / qpmax=69 / qpstep=4 / cplxblur=20.0 / qblur=0.5 / ip_ratio=1.40 / aq=1:1.00
Language : English
Default : Yes
Forced : No

Audio #1
ID : 2
Format : AC-3
Format/Info : Audio Coding 3
Mode extension : CM (complete main)
Format settings, Endianness : Big
Codec ID : A_AC3
Duration : 1h 49mn
Bit rate mode : Constant
Bit rate : 448 Kbps
Channel(s) : 6 channels
Channel positions : Front: L C R, Side: L R, LFE
Sampling rate : 48.0 KHz
Bit depth : 16 bits
Compression mode : Lossy
Stream size : 351 MiB (4%)
Title : DVO 1+1 5.1 448 kbps [Hurtom-urij546724, dvorsky]
Language : Ukrainian
Default : Yes
Forced : No

Audio #2
ID : 3
Format : AC-3
Format/Info : Audio Coding 3
Mode extension : CM (complete main)
Format settings, Endianness : Big
Codec ID : A_AC3
Duration : 1h 49mn
Bit rate mode : Constant
Bit rate : 448 Kbps
Channel(s) : 6 channels
Channel positions : Front: L C R, Side: L R, LFE
Sampling rate : 48.0 KHz
Bit depth : 16 bits
Compression mode : Lossy
Stream size : 351 MiB (4%)
Title : original
Language : English
Default : No
Forced : No

Text #1
ID : 4
Format : UTF-8
Codec ID : S_TEXT/UTF8
Codec ID/Info : UTF-8 Plain Text
Title : Ukr Full [Hurtom-urij546724]
Language : Ukrainian
Default : No
Forced : No

Text #2
ID : 5
Format : ASS
Codec ID : S_TEXT/ASS
Codec ID/Info : Advanced Sub Station Alpha
Compression mode : Lossless
Title : Eng full
Language : English
Default : No
Forced : No

Menu
00:00:00.000 : :Chapter 01
00:06:51.620 : :Chapter 02
00:14:35.917 : :Chapter 03
00:20:14.630 : :Chapter 04
00:28:55.484 : :Chapter 05
00:36:10.668 : :Chapter 06
00:43:32.193 : :Chapter 07
00:45:27.475 : :Chapter 08
00:54:23.385 : :Chapter 09
01:04:04.174 : :Chapter 10
01:12:14.830 : :Chapter 11
01:16:58.405 : :Chapter 12
01:24:08.460 : :Chapter 13
01:28:33.850 : :Chapter 14
01:37:32.138 : :Chapter 15
01:42:40.988 : :Chapter 16


Джерела та подяки: ріп відео - NoLimits-Team; українська доріжка - urij546724 (зведення) та dvorsky (запис з ТБ); українські субтитри - urij546724 (переклад з російської), постер - hellforces (всі - Гуртом).


 Трекер:    Зареєстрований   

Завантажити / скачати фільм українською



відео для новачків



 Зареєстрований:   2013-03-24 12:26
 Розмір:   8.14 GB 
 Оцінка фільму:   4.5/10 (Голосів: 20)
   
Інші релізи
   Сексдрайв / Sex Drive (2008) 720p Ukr/Eng | sub Ukr/Eng AngryBirdsUA  2 / 0   6.71 GB   2011-10-19 22:06 
   Сексдрайв / Sex Drive (2008) Ukr/Eng | sub Ukr/Eng urij546724  4 / 0   2 GB   2011-06-28 00:00 
Anonymous 







2013-03-25 12:50  
ЗАЛИШАЙТЕСЬ ЯКОМОГА ДОВШЕ НА РОЗДАЧІ !

СКАЧАВ САМ - ДАЙ СКАЧАТИ ІНШИМ

bot 
робот


З нами з: 30.09.07
Востаннє: 26.05.05
Повідомлень: 16051

2016-08-14 17:44  
Тему перенесено з Фільми в HD до форуму Архів відео

Причина перенесення: Останній раз роздавалося igor911 (2015-11-11)
11FrYkT

bot 
робот


З нами з: 30.09.07
Востаннє: 26.05.05
Повідомлень: 16051

2016-11-25 08:41  
Тему перенесено з Архів відео до форуму Фільми в HD

Причина перенесення: відновив роздачу з ex.ua
igor911

Anonymous 







2016-11-25 08:44  
Поки роздаватиму лише по буднях з 8 до 16.
Ваш часовий пояс: GMT + 2 Години

Нова тема   Відповісти