Завантажити та скачати торренти українською


Татуйований / Le Tatoue (1968) 720p Ukr/Fra

Нові коментарі

Нова тема   Відповісти
Автор Повідомлення
chaoscor 
Свій


З нами з: 17.10.10
Востаннє: 03.12.16
Повідомлень: 73

2013-03-24 11:38  
Татуйований / Le Tatoue (1968) 720p Ukr/Fra

Татуйований / Le Tatoue (1968) 720p Ukr/Fra


Жанр: комедія
Країна: Франція, Італія



Режисер: Дені Де Ла Пательер
Актори: Луї де Фюнес, Жан Габен, Поль Мерсі, Ів Барсак, П'єр Торнад, Жан-П'єр Даррас, Джо Уорфілд, Дональд Дж. фон Кертц, Лін Шардонне, Ібрахим Сек

Сюжет:
Спритний і нечистий на руку торговець антикваріатом Феліс Мезере випадково побачив на широкій спині літнього чоловіка, який позував художнику, незвичайне татуювання. Досвідчене око пройдисвіта відразу визначає руку майстра - і дійсно, цей малюнок колись зробив майору Леграну великий Модільяні.  Феліс одразу ж пропонує Леграну продати шкіру зі спини за будь-які гроші, але той з обуренням відмовляється від абсурдної пропозиції. Та знавіснілий від жадібності антиквар готовий на все, щоб отримати безцінний шедевр і продати його втридорога. Легран врешті-решт погоджується, але в обмін на невелику послугу. Феліс не роздумуючи погоджується, і вони відправляються в незвичайну подорож...


Тривалість: 01:30:04
Якість:
Відео:
кодек:
розмір кадру: 1280 х 542
бітрейт: 4177 кб/с

Аудіо # 1:
мова: українська
переклад: багатоголосий закадровий
кодек: 2.0
бітрейт: 192 кб/с
Джерело озвучення:

Доріжка з релізу: RB26DETT
Синхронізація звуку: chaoscor

Аудіо # 2:
мова: французька
переклад: оригінал
кодек: 2.0
бітрейт: 192 кб/с
MediaInfo
N:\проекти\Le.Tatoue.1968.720p..3xRus.Fre.Sub.HDCLUB\ Le Tatoue (1968) 720p UkrFra.mkv
General
Complete name : N:\проекти\Le.Tatoue.1968.720p..3xRus.Fre.Sub.HDCLUB\ Le Tatoue (1968) 720p UkrFra.mkv
Format : Matroska
File size : 2.93 GiB
Duration : 1h 30mn
Overall bit rate : 4 653 Kbps
Movie name : Le Tatoue (1968) - Release by xamster for HDCLUB
Encoded date : UTC 2013-03-24 08:49:39
Writing application : mkvmerge v5.2.1 ('A Far Off Place') built on Jan 2 2012 23:21:10
Writing library : libebml v1.2.3 + libmatroska v1.3.0
Video #1
ID : 1
Format : AVC
Format/Info : Advanced Video Codec
Format profile : [email protected]
Format settings, CABAC : No
Format settings, ReFrames : 2 frames
Muxing mode : Container [email protected]
Codec ID : V_MPEG4/ISO/AVC
Duration : 1h 30mn
Bit rate mode : Variable
Bit rate : 4 177 Kbps
Width : 1 280 pixels
Height : 542 pixels
Display aspect ratio : 2.35:1
Frame rate : 24.000 fps
Color space : YUV
Chroma subsampling : 4:2:0
Bit depth : 8 bits
Scan type : Progressive
Bits/(Pixel*Frame) : 0.251
Stream size : 2.63 GiB (90%)
Title : Release by xamster for HDCLUB
Language : French
Color primaries : BT.709-5, BT.1361, IEC 61966-2-4, SMPTE RP177
Transfer characteristics : BT.709-5, BT.1361
Matrix coefficients : BT.709-5, BT.1361, IEC 61966-2-4 709, SMPTE RP177
Audio #2
ID : 2
Format : AC-3
Format/Info : Audio Coding 3
Mode extension : CM (complete main)
Codec ID : A_AC3
Duration : 1h 30mn
Bit rate mode : Constant
Bit rate : 192 Kbps
Channel(s) : 2 channels
Channel positions : Front: L R
Sampling rate : 44.1 KHz
Bit depth : 16 bits
Stream size : 124 MiB (4%)
Language : Ukrainian
Audio #3
ID : 3
Format : AC-3
Format/Info : Audio Coding 3
Mode extension : CM (complete main)
Codec ID : A_AC3
Duration : 1h 30mn
Bit rate mode : Constant
Bit rate : 192 Kbps
Channel(s) : 2 channels
Channel positions : Front: L R
Sampling rate : 48.0 KHz
Bit depth : 16 bits
Stream size : 124 MiB (4%)
Скріншоти


Джерело: &
Особиста оцінка: 10 - без зайвих вагань рекомендую всім!


Срібний реліз (на рейтинг впливає 50% завантаженого)
 Трекер:    Зареєстрований   

Завантажити / скачати фільм українською



відео для новачків



 Зареєстрований:   2013-03-24 11:38
 Розмір:   2.93 GB 
 Оцінка фільму:   10/10 (Голосів: 8)
   
Інші релізи
   Татуйований / Le Tatoue (1968) Ukr/Fra RB26DETT  4 / 0   1.46 GB   2010-04-11 16:50 
Ваш часовий пояс: GMT + 2 Години

Нова тема   Відповісти