Завантажити та скачати торренти українською


Світлана Лобода - Ты не забудешь (2005) [FLAC] | Pop

Нові коментарі

Нова тема   Цю тему закрито
Останній раз роздавалося fanDYNAMO (2013-03-31)
Автор Повідомлення
fanDYNAMO 
Частий відвідувач


З нами з: 30.12.12
Востаннє: 03.12.16
Повідомлень: 38

2013-03-24 02:45  
Світлана Лобода - Ты не забудешь (2005) [FLAC] | Pop

Світлана Лобода - Ты не забудешь (2005) [FLAC] | Pop


Стиль: Pop
Країна, місто: Україна, Київ
Сайти: Офіційний сайт
Видавець: MOON Records

Пісні:
    01. Потому, что люблю (03:11)
    02. Чёрно-белая зима (03:16)
    03. Дай мне (03:01)
    04. Возьми (03:50)
    05. Ты не забудешь (04:04)
    06. Там, за облаками (03:43)
    07. Чёрный ангел (04:00)
    08. Я забуду тебя (04:09)
    09. Я забуду тебя (rmx) (03:52)
    10. Чёрно-белая зима (rmx) (04:17)
    11. How can i get you (bonus) (03:37)
    12. Didn't mean (bonus) (02:54)

Тривалість: 00:43:58
Мова: російська (01-10), англійська (11-12)
Аудіо-кодек: FLAC
Бітрейт: ~1007 кб/с
Джерело: Власний CD
Звіт EAC:
Exact Audio Copy V1.0 beta 3 from 29. August 2011

Отчёт EAC об извлечении, выполненном 18. марта 2013, 16:44

Светлана Лобода / Ты не забудешь

Дисковод: HL-DT-STDVDRAM GH24NS90 Adapter: 2 ID: 0

Режим чтения : Достоверность
Использование точного потока : Да
Отключение кэша аудио : Да
Использование указателей C2 : Нет

Коррекция смещения при чтении : 6
Способность читать области Lead-in и Lead-out : Нет
Заполнение пропущенных сэмплов тишиной : Да
Удаление блоков с тишиной в начале и конце : Нет
При вычислениях CRC использовались нулевые сэмплы : Да
Интерфейс : Встроенный Win32-интерфейс для Win NT/2000

Выходной формат : Пользовательский кодировщик
Выбранный битрейт : 128 kBit/s
Качество : Высокий
Добавление ID3-тега : Нет
Утилита сжатия : C:\Program Files (x86)\Exact Audio Copy\Flac\flac.exe
Дополнительные параметры : -V -8 -T "Date=%year%" -T "Genre=%genre%" %source%

TOC извлечённого CD

Трек | Старт | Длительность | Начальный сектор | Конечный сектор
---------------------------------------------------------------------
1 | 0:00.00 | 3:11.67 | 0 | 14391
2 | 3:11.67 | 3:16.56 | 14392 | 29147
3 | 6:28.48 | 3:01.01 | 29148 | 42723
4 | 9:29.49 | 3:50.63 | 42724 | 60036
5 | 13:20.37 | 4:04.10 | 60037 | 78346
6 | 17:24.47 | 3:43.13 | 78347 | 95084
7 | 21:07.60 | 4:00.16 | 95085 | 113100
8 | 25:08.01 | 4:09.28 | 113101 | 131803
9 | 29:17.29 | 3:52.22 | 131804 | 149225
10 | 33:09.51 | 4:17.25 | 149226 | 168525
11 | 37:27.01 | 3:37.27 | 168526 | 184827
12 | 41:04.28 | 2:54.32 | 184828 | 197909
13 | 46:30.60 | 11:43.17 | 209310 | 262051

Характеристики диапазона извлечения и сообщения об ошибках

Выбранный диапазон

Имя файла D:\Светлана Лобода - Ты не забудешь (2005)\Светлана Лобода - Ты не забудешь (2005).wav

Пиковый уровень 100.0 %
Скорость извлечения 7.9 X
Качество диапазона 100.0 %
CRC теста E00DEE21
CRC копии E00DEE21
Копирование... OK

Ошибок не произошло

AccurateRip: сводка

Трек 1 отсутствует в базе данных
Трек 2 отсутствует в базе данных
Трек 3 отсутствует в базе данных
Трек 4 отсутствует в базе данных
Трек 5 отсутствует в базе данных
Трек 6 отсутствует в базе данных
Трек 7 отсутствует в базе данных
Трек 8 отсутствует в базе данных
Трек 9 отсутствует в базе данных
Трек 10 отсутствует в базе данных
Трек 11 отсутствует в базе данных
Трек 12 отсутствует в базе данных

Ни одного трека нет в базе AccurateRip

Конец отчёта

==== Контрольная сумма отчёта 0DA2DE3E22341C981FA6DCB70CF67B66BC9080790678AD8A9AF8C5AE95377E87 ====
Індексна карта (.CUE):
REM GENRE Pop
REM DATE 2005
REM DISCID B70DA60D
REM COMMENT "ExactAudioCopy v1.0b3"
PERFORMER "Светлана Лобода"
TITLE "Ты не забудешь"
FILE "Светлана Лобода - Ты не забудешь (2005).flac" WAVE
TRACK 01 AUDIO
TITLE "Потому, что люблю"
PERFORMER "Светлана Лобода"
FLAGS DCP
INDEX 01 00:00:00
TRACK 02 AUDIO
TITLE "Чёрно-белая зима"
PERFORMER "Светлана Лобода"
FLAGS DCP
INDEX 00 03:09:67
INDEX 01 03:11:67
TRACK 03 AUDIO
TITLE "Дай мне"
PERFORMER "Светлана Лобода"
FLAGS DCP
INDEX 00 06:26:48
INDEX 01 06:28:48
TRACK 04 AUDIO
TITLE "Возьми"
PERFORMER "Светлана Лобода"
FLAGS DCP
INDEX 00 09:27:49
INDEX 01 09:29:49
TRACK 05 AUDIO
TITLE "Ты не забудешь"
PERFORMER "Светлана Лобода"
FLAGS DCP
INDEX 00 13:18:37
INDEX 01 13:20:37
TRACK 06 AUDIO
TITLE "Там, за облаками"
PERFORMER "Светлана Лобода"
FLAGS DCP
INDEX 00 17:22:47
INDEX 01 17:24:47
TRACK 07 AUDIO
TITLE "Чёрный ангел"
PERFORMER "Светлана Лобода"
FLAGS DCP
INDEX 00 21:05:60
INDEX 01 21:07:60
TRACK 08 AUDIO
TITLE "Я забуду тебя"
PERFORMER "Светлана Лобода"
FLAGS DCP
INDEX 00 25:06:01
INDEX 01 25:08:01
TRACK 09 AUDIO
TITLE "Я забуду тебя (rmx)"
PERFORMER "Светлана Лобода"
FLAGS DCP
INDEX 00 29:15:29
INDEX 01 29:17:29
TRACK 10 AUDIO
TITLE "Чёрно-белая зима (rmx)"
PERFORMER "Светлана Лобода"
FLAGS DCP
INDEX 00 33:07:51
INDEX 01 33:09:51
TRACK 11 AUDIO
TITLE "How can i get you (bonus)"
PERFORMER "Светлана Лобода"
FLAGS DCP
INDEX 00 37:25:01
INDEX 01 37:27:01
TRACK 12 AUDIO
TITLE "Didn't mean (bonus)"
PERFORMER "Светлана Лобода"
FLAGS DCP
INDEX 00 41:02:28
INDEX 01 41:04:28
Звіт auCDtect Task Manager
-----------------------

DON'T MODIFY THIS FILE

-----------------------

PERFORMER: auCDtect Task Manager, ver. 1.5.1RC6 build 1.5.1.7
Copyright (c) 2008-2010 y-soft. All rights reserved
http://y-soft.org

ANALYZER: auCDtect: CD records authenticity detector, version 0.8.2
Copyright (c) 2004 Oleg Berngardt. All rights reserved.
Copyright (c) 2004 Alexander Djourik. All rights reserved.

FILE: Светлана Лобода - Ты не забудешь (2005).flac
Size: 332207660 Hash: C3E16C0D8CB26E7A5B9FC02A3FC648FF Accuracy: -m0
Conclusion: CDDA 100%
Signature: 59A2888687FDF4F3F06B7AE6096148C50979BAE3


 Трекер:    Зареєстрований   

Завантажити / скачати українську музику



відео для новачків



 Зареєстрований:   2013-03-24 02:45
 Розмір:   317 MB 
 Оцінка музики:   1.5/10 (Голосів: 18)
   
Kulja 
Частий відвідувач


З нами з: 02.06.10
Востаннє: 31.10.16
Повідомлень: 30

2013-03-24 09:35  
Не розумію, що українського є в цьому диску? Навіщо сюди всяку лабуду викладати?
V_Korn 
Новенький


З нами з: 20.11.12
Востаннє: 01.12.16
Повідомлень: 4

2013-03-24 10:39  
Лобода співає та розмовляє російською мовою, отже пропагує російські цінності, та є частиною російського культурного простору. Якщо портал Гуртом для підтримки всього українського - їй тут не місце.
fanDYNAMO 
Частий відвідувач


З нами з: 30.12.12
Востаннє: 03.12.16
Повідомлень: 38

2013-03-24 11:15  
Kulja
вона по перше українська співачка!!!
V_Korn
Вінницька теж співае російською - тим не менш на трекері є! А Лобода, до речи, представляла Україну на Евробаченні - якшо хтось забув!!!

--Іван-- 
Новенький


З нами з: 13.01.11
Востаннє: 18.07.13
Повідомлень: 8

2013-03-24 13:25  
Не у подібнюйтеся до нікчемних толерантних львівських "інтелегентів", які ховаючись за тими словами, які я написав з переду, не можуть відкрито виступати на захист рідної мови та культури, і займаючись підміною понять "вона українська співачка" і так далі, пропагують псячоязичне лайно. Вони "толеранти" вважають українську мову "неформатом", "неринковою" і так далі.
Прошу "Гуртом" забрати із даного порталу те, що не сприяє розвитку Української культури та мови, а радше навпаки, знищує її методом доведення до свідомості людей тезу у не потрібності української мови та культури, адже на томість є російська.

oltymk 
Новенький


З нами з: 08.08.08
Востаннє: 02.12.16
Повідомлень: 10

2013-03-24 13:40  
Теж вважаю, що російськомовній попсі тут не місце
stephanco 
Частий відвідувач


З нами з: 19.05.08
Востаннє: 03.12.16
Повідомлень: 48

2013-03-24 14:53  
Підтримую. На гуртом тільки українське.

Додано через 3 хвилини 40 секунд:

Можливо не досить доречно, але до слова про
Цитата:
вона по перше українська співачка!!!


Ківалов, Колісніченко, Табачник також "українські" громадяни, а що пси вироблять...Шлях би їх трафив.

sasha9191 
Новенький


З нами з: 01.07.10
Востаннє: 02.12.16
Повідомлень: 10

2013-03-24 15:17  
Повіністю підтримую попередні вимоги!
Видаліть з чудового ресурсу цей шматок лайна!

Ваш часовий пояс: GMT + 2 Години

Нова тема   Цю тему закрито