Завантажити та скачати торренти українською


Світлана Лобода - Не ма4о (2008) [FLAC] | Pop

Нові коментарі

Нова тема   Цю тему закрито
Останній раз роздавалося fanDYNAMO (2013-03-31)
Автор Повідомлення
fanDYNAMO 
Частий відвідувач


З нами з: 30.12.12
Востаннє: 05.12.16
Повідомлень: 38

2013-03-24 02:34  
Світлана Лобода - Не ма4о (2008) [FLAC] | Pop

Світлана Лобода - Не ма4о (2008) [FLAC] | Pop


Стиль: Pop
Країна, місто: Україна, Київ
Сайти: Офіційний сайт
Видавець: MOON Records

Пісні:
    01. Intro (02:26)
    02. Не мачо (02:54)
    03. Мишка, гадкий мальчишка (03:38)
    04. За что (03:34)
    05. Я влюбилась (03:08)
    06. Я тебя не помню (04:03)
    07. Счастье (04:24)
    08. Не покидай (04:13)
    09. В этом проблема (03:44)
    10. Назначаю своим (03:43)
    11. Счастье (remix DJ Noiz) (03:38)
    12. Мишка, гадкий мальчишка (remix DJ MAJOR) (03:48)
    13. Счастье (remix DJ Major) (03:10)

Тривалість: 00:46:30
Мова: російська (01-13)
Аудіо-кодек: FLAC
Бітрейт: ~ 1010 кб/с
Джерело: Власний CD
Звіт EAC:
Exact Audio Copy V1.0 beta 3 from 29. August 2011

Отчёт EAC об извлечении, выполненном 18. марта 2013, 16:19

Светлана Лобода / Не ма4о

Дисковод: HL-DT-STDVDRAM GH24NS90 Adapter: 2 ID: 0

Режим чтения : Достоверность
Использование точного потока : Да
Отключение кэша аудио : Да
Использование указателей C2 : Нет

Коррекция смещения при чтении : 6
Способность читать области Lead-in и Lead-out : Нет
Заполнение пропущенных сэмплов тишиной : Да
Удаление блоков с тишиной в начале и конце : Нет
При вычислениях CRC использовались нулевые сэмплы : Да
Интерфейс : Встроенный Win32-интерфейс для Win NT/2000

Выходной формат : Пользовательский кодировщик
Выбранный битрейт : 128 kBit/s
Качество : Высокий
Добавление ID3-тега : Нет
Утилита сжатия : C:\Program Files (x86)\Exact Audio Copy\Flac\flac.exe
Дополнительные параметры : -V -8 -T "Date=%year%" -T "Genre=%genre%" %source%

TOC извлечённого CD

Трек | Старт | Длительность | Начальный сектор | Конечный сектор
---------------------------------------------------------------------
1 | 0:00.00 | 2:26.13 | 0 | 10962
2 | 2:26.13 | 2:54.66 | 10963 | 24078
3 | 5:21.04 | 3:38.66 | 24079 | 40494
4 | 8:59.70 | 3:34.03 | 40495 | 56547
5 | 12:33.73 | 3:08.32 | 56548 | 70679
6 | 15:42.30 | 4:03.49 | 70680 | 88953
7 | 19:46.04 | 4:24.20 | 88954 | 108773
8 | 24:10.24 | 4:13.53 | 108774 | 127801
9 | 28:24.02 | 3:44.59 | 127802 | 144660
10 | 32:08.61 | 3:43.20 | 144661 | 161405
11 | 35:52.06 | 3:38.74 | 161406 | 177829
12 | 39:31.05 | 3:48.73 | 177830 | 195002
13 | 43:20.03 | 3:10.21 | 195003 | 209273

Характеристики диапазона извлечения и сообщения об ошибках

Выбранный диапазон

Имя файла D:\Светлана Лобода - Не ма4о (2008)\Светлана Лобода - Не ма4о (2008).wav

Пиковый уровень 100.0 %
Скорость извлечения 6.9 X
Качество диапазона 100.0 %
CRC теста 4B68A8F3
CRC копии 4B68A8F3
Копирование... OK

Ошибок не произошло

AccurateRip: сводка

Трек 1 точность не определена (достоверность 1) [2D63DBE8], AccurateRip вернул [54CD9980] (AR v2)
Трек 2 точность не определена (достоверность 1) [7794A1A0], AccurateRip вернул [E6F889FE] (AR v2)
Трек 3 точность не определена (достоверность 1) [8817F27F], AccurateRip вернул [29B0DE54] (AR v2)
Трек 4 точность не определена (достоверность 1) [BECEB6F3], AccurateRip вернул [D595186B] (AR v2)
Трек 5 точность не определена (достоверность 1) [3C1F0522], AccurateRip вернул [DAD0D69F] (AR v2)
Трек 6 точность не определена (достоверность 1) [7C188B96], AccurateRip вернул [2C8E5753] (AR v2)
Трек 7 точность не определена (достоверность 1) [08F0C9C1], AccurateRip вернул [C21E6A2B] (AR v2)
Трек 8 точность не определена (достоверность 1) [C4AF2966], AccurateRip вернул [C9C2AD17] (AR v2)
Трек 9 точность не определена (достоверность 1) [A75015C9], AccurateRip вернул [1EDA88A1] (AR v2)
Трек 10 точность не определена (достоверность 1) [FF4E58BB], AccurateRip вернул [98EC64A7] (AR v2)
Трек 11 точность не определена (достоверность 1) [7FD95355], AccurateRip вернул [9D8076B4] (AR v2)
Трек 12 точность не определена (достоверность 1) [5AD09F4F], AccurateRip вернул [6290FA7A] (AR v2)
Трек 13 точность не определена (достоверность 1) [1F78E20D], AccurateRip вернул [BBF9D645] (AR v2)

Ни один трек не прошёл проверки на точность
В вашей базе может быть иной вариант штамповки диска

Конец отчёта

==== Контрольная сумма отчёта 9EAF6F62DAB42771903BC8751756AF9785E4309CBA117FCA2B78924D888E807C ====
Індексна карта (.CUE):
REM GENRE Pop
REM DATE 2008
REM DISCID A10AE60D
REM COMMENT "ExactAudioCopy v1.0b3"
PERFORMER "Светлана Лобода"
TITLE "Не ма4о"
FILE "Светлана Лобода - Не ма4о (2008).flac" WAVE
TRACK 01 AUDIO
TITLE "Intro"
PERFORMER "Светлана Лобода"
FLAGS DCP
INDEX 01 00:00:00
TRACK 02 AUDIO
TITLE "Не мачо"
PERFORMER "Светлана Лобода"
FLAGS DCP
INDEX 01 02:26:13
TRACK 03 AUDIO
TITLE "Мишка, гадкий мальчишка"
PERFORMER "Светлана Лобода"
FLAGS DCP
INDEX 01 05:21:04
TRACK 04 AUDIO
TITLE "За что"
PERFORMER "Светлана Лобода"
FLAGS DCP
INDEX 01 08:59:70
TRACK 05 AUDIO
TITLE "Я влюбилась"
PERFORMER "Светлана Лобода"
FLAGS DCP
INDEX 01 12:33:73
TRACK 06 AUDIO
TITLE "Я тебя не помню"
PERFORMER "Светлана Лобода"
FLAGS DCP
INDEX 01 15:42:30
TRACK 07 AUDIO
TITLE "Счастье"
PERFORMER "Светлана Лобода"
FLAGS DCP
INDEX 01 19:46:04
TRACK 08 AUDIO
TITLE "Не покидай"
PERFORMER "Светлана Лобода"
FLAGS DCP
INDEX 01 24:10:24
TRACK 09 AUDIO
TITLE "В этом проблема"
PERFORMER "Светлана Лобода"
FLAGS DCP
INDEX 01 28:24:02
TRACK 10 AUDIO
TITLE "Назначаю своим"
PERFORMER "Светлана Лобода"
FLAGS DCP
INDEX 01 32:08:61
TRACK 11 AUDIO
TITLE "Счастье (remix DJ Noiz)"
PERFORMER "Светлана Лобода"
FLAGS DCP
INDEX 01 35:52:06
TRACK 12 AUDIO
TITLE "Мишка, гадкий мальчишка (remix DJ MAJOR)"
PERFORMER "Светлана Лобода"
FLAGS DCP
INDEX 01 39:31:05
TRACK 13 AUDIO
TITLE "Счастье (remix DJ Major)"
PERFORMER "Светлана Лобода"
FLAGS DCP
INDEX 01 43:20:03
Звіт auCDtect Task Manager
-----------------------

DON'T MODIFY THIS FILE

-----------------------

PERFORMER: auCDtect Task Manager, ver. 1.5.1RC6 build 1.5.1.7
Copyright (c) 2008-2010 y-soft. All rights reserved
http://y-soft.org

ANALYZER: auCDtect: CD records authenticity detector, version 0.8.2
Copyright (c) 2004 Oleg Berngardt. All rights reserved.
Copyright (c) 2004 Alexander Djourik. All rights reserved.

FILE: Светлана Лобода - Не ма4о (2008).flac
Size: 351996731 Hash: ED0BC536AD0A7AD196A53AD587848286 Accuracy: -m0
Conclusion: CDDA 100%
Signature: 957A8D14B1BF30466B486FA54667DA1E1C2D4DFD


 Трекер:    Зареєстрований   

Завантажити / скачати українську музику



відео для новачків



 Зареєстрований:   2013-03-24 02:34
 Розмір:   340 MB 
 Оцінка музики:   1.5/10 (Голосів: 17)
   
Ваш часовий пояс: GMT + 2 Години

Нова тема   Цю тему закрито