Завантажити та скачати торренти українською


VA - Кращі українські пісні [Золота колекція] (2009) [FLAC] | Pop / Folk

Нові коментарі

Нова тема   Відповісти
Автор Повідомлення
civ 
VIP


З нами з: 16.02.11
Востаннє: 08.12.16
Повідомлень: 429

2013-03-24 01:25  
VA - Кращі українські пісні [Золота колекція] (2009) [FLAC] | Pop / Folk

VA - Кращі українські пісні [Золота колекція] (2009) [FLAC] | Pop / Folk


Стиль: Pop / Folk
Країна: Україна
Видавець: Астра Рекордс

Пісні:
    01. Ой, у лузі червона калина
    Людмила Клименко, Державний заслужений український народний хор ім. Г.Верьовки
    02. Їхав козак за Дунай
    Олександр Таранець, Володимир Зарков
    03. Ой, на горі та й женці жнуть
    Олександр Юхименко, Євген Береза, Державна заслужена капела бандуристів України
    04. А льон цвіте
    Діана Бондар, Поліський ансамбль «Льонок»
    05. Розпрягайте, хлопці, коні
    Державна заслужена капела бандуристів України
    06. Ніч яка місячна
    Костянтин Огнєвий
    07. Дует Оксани і Андрія
    Зоя Гайдай, Іван Козловський
    08. Цвіте терен
    Ніна Матвієнко, Валентина Хіценко, Державний заслужений український народний хор ім. Г.Верьовки
    09. Ти казала, прийди, прийди
    Державна заслужена капела бандуристів України
    10. Гей, нуте хлопці
    Микола Кондратюк
    11. Дивлюсь я на небо
    Микола Кондратюк
    12. Пісня про вчительку
    Микола Кондратюк
    13. Пісня Сергія з к/ф «Літа молодії» (Пісня про рушник)
    Дмитро Гнатюк
    14. Два кольори
    Дмитро Гнатюк
    15. Черемшина
    Дмитро Гнатюк
    16. Чорнобривці
    Костянтин Огнєвий
    17. Києве мій
    Юрій Гуляєв
    18. Червона рута
    ВІА «Смерічка», Василь Зінкевич, Назарій Яремчук
    19. Водограй
    ВІА «Смерічка», Надія Пащенко, Назарій Яремчук
    20. Реве та стогне Дніпр широкий
    Державна заслужена капела бандуристів України
    21. Україна
    Тарас Петриненко, ВІА «Гроно»

Тривалість: 01:19:47
Мова: українська
Аудіо-кодек: FLAC
Бітрейт: 671 кб/с
Джерело: власний ріп
Тип ріпу: image + cue + обкладинки
EAC Log

Exact Audio Copy V1.0 beta 3 from 29. August 2011

EAC extraction logfile from 7. March 2013, 19:06

Various / Кращі українські пісні [Золота колекція]

Used drive : MATSHITADVD-RAM UJ8C1 Adapter: 1 ID: 0

Read mode : Secure
Utilize accurate stream : Yes
Defeat audio cache : Yes
Make use of C2 pointers : No

Read offset correction : 6
Overread into Lead-In and Lead-Out : No
Fill up missing offset samples with silence : Yes
Delete leading and trailing silent blocks : No
Null samples used in CRC calculations : Yes
Used interface : Native Win32 interface for Win NT & 2000

Used output format : Internal WAV Routines
Sample format : 44.100 Hz; 16 Bit; Stereo

TOC of the extracted CD

Track | Start | Length | Start sector | End sector
---------------------------------------------------------
1 | 0:00.00 | 3:55.08 | 0 | 17632
2 | 3:55.08 | 2:44.74 | 17633 | 30006
3 | 6:40.07 | 3:28.11 | 30007 | 45617
4 | 10:08.18 | 3:55.00 | 45618 | 63242
5 | 14:03.18 | 3:14.07 | 63243 | 77799
6 | 17:17.25 | 3:16.07 | 77800 | 92506
7 | 20:33.32 | 6:15.01 | 92507 | 120632
8 | 26:48.33 | 5:15.02 | 120633 | 144259
9 | 32:03.35 | 1:23.05 | 144260 | 150489
10 | 33:26.40 | 1:35.13 | 150490 | 157627
11 | 35:01.53 | 2:04.02 | 157628 | 166929
12 | 37:05.55 | 4:45.29 | 166930 | 188333
13 | 41:51.09 | 4:52.06 | 188334 | 210239
14 | 46:43.15 | 4:16.12 | 210240 | 229451
15 | 50:59.27 | 4:13.00 | 229452 | 248426
16 | 55:12.27 | 3:42.65 | 248427 | 265141
17 | 58:55.17 | 4:12.07 | 265142 | 284048
18 | 63:07.24 | 3:09.02 | 284049 | 298225
19 | 66:16.26 | 3:26.12 | 298226 | 313687
20 | 69:42.38 | 4:44.06 | 313688 | 334993
21 | 74:26.44 | 5:20.05 | 334994 | 358998

Range status and errors

Selected range

Filename C:\Music\Various - Кращі українські пісні [Золота колекція] (2009)\Various - Кращі українські пісні [Золота колекція].wav

Peak level 98.8 %
Extraction speed 5.4 X
Range quality 100.0 %
Copy CRC 7172492E
Copy OK

No errors occurred

End of status report
Audiochecker

fooCDtect - foobar2000 + auCDtect, baralgin.

auCDtect: CD records authenticity detector, version 0.8.2
Copyright (c) 2004 Oleg Berngardt. All rights reserved.
Copyright (c) 2004 Alexander Djourik. All rights reserved.

mode: 0

===========================================
Track: 01. Ой, у лузі червона калина
Quality: MPEG 89%
===========================================
Track: 02. Їхав козак за Дунай
Quality: CDDA 100%
===========================================
Track: 03. Ой, на горі та й женці жнуть
Quality: CDDA 100%
===========================================
Track: 04. А льон цвіте
Quality: MPEG 93%
===========================================
Track: 05. Розпрягайте, хлопці, коні
Quality: CDDA 99%
===========================================
Track: 06. Ніч яка місячна
Quality: CDDA 100%
===========================================
Track: 07. Дует Оксани і Андрія
Quality: CDDA 100%
===========================================
Track: 08. Цвіте терен
Quality: MPEG 100%
===========================================
Track: 09. Ти казала, прийди, прийди
Quality: CDDA 100%
===========================================
Track: 10. Гей, нуте хлопці
Quality: CDDA 43%
===========================================
Track: 11. Дивлюсь я на небо
Quality: CDDA 100%
===========================================
Track: 12. Пісня про вчительку
Quality: MPEG 93%
===========================================
Track: 13. Пісня про рушник
Quality: CDDA 100%
===========================================
Track: 14. Два кольори
Quality: CDDA 100%
===========================================
Track: 15. Черемшина
Quality: CDDA 92%
===========================================
Track: 16. Чорнобривці
Quality: CDDA 99%
===========================================
Track: 17. Києве мій
Quality: CDDA 99%
===========================================
Track: 18. Червона рута
Quality: CDDA 100%
===========================================
Track: 19. Водограй
Quality: CDDA 100%
===========================================
Track: 20. Реве та стогне Дніпр широкий
Quality: CDDA 86%
===========================================
Track: 21. Україна
Quality: CDDA 100%
===========================================
Додаткова інформація:
В межах серії "Золота колекція" започатковано свого роду сувенірну міні-серію – саме останню якраз і презентує збірка "Кращі українські пісні". Диски цієї міні-серії вирізняються зовнішнім оформленням – тож Ви легко зможете виокремити їх на загальному тлі. Ну а стосовно змісту – дивіться самі: І. Козловський, ансамбль "Льонок", М. Кондратюк, Д. Гнатюк, Т. Петриненко, і т.д. Як завжди, тут Ви знайдете записи з фондів Національної радіокомпанії України – і, як завжди, частина з цих записів є рідкістю. З іншого ж боку – тут представлено справжню класику "золотих часів" української естради. Тож, гадаємо, додаткових пояснень не потрібно – ці збірки однозначно заслуговують на увагу. Особливо ж – якщо Ви збираєтесь зробити комусь легкий, але цікавий подарунок.

Умка




Якщо Ви справді бажаєте підтримати українське - після прослуховування, якщо музика вам сподобалась, придбайте ліцензійний диск. Підтримаймо вітчизняних виконавців!


Срібний реліз (на рейтинг впливає 50% завантаженого)
 Трекер:    Зареєстрований   

Завантажити / скачати українську музику



відео для новачків



 Зареєстрований:   2013-03-24 01:25
 Розмір:   403 MB 
 Оцінка музики:   10/10 (Голосів: 16)
   
Ваш часовий пояс: GMT + 2 Години

Нова тема   Відповісти