Завантажити та скачати торренти українською


VA - Класична музика для релаксації [Золота колекція] (2005) [FLAC] | Classic

Нові коментарі

Нова тема   Відповісти
Автор Повідомлення
civ 
VIP


З нами з: 16.02.11
Востаннє: 08.12.16
Повідомлень: 429

2013-03-24 01:12  
VA - Класична музика для релаксації [Золота колекція] (2005) [FLAC] | Classic

VA - Класична музика для релаксації [Золота колекція] (2005) [FLAC] | Classic


Стиль: Classic
Країна: Україна
Видавець: Астра Рекордс

Пісні:
    01. Аве Марія
    Геннадій Івченко, Вадим Бойко, Валентина Чепелинська
    02. Адажіо
    Віталій Пшеничний, Вікторія Жадько
    03. Серенада
    Камерний оркестр київського театру опери та балету
    04. Модерато (перша частина з сюїти у старовинному стилі)
    Анатолій Баженов, Наїда Магометбекова
    05. Аріозо
    Олег Кудряшов, Ірина Боровик
    06. Мрії кохання
    Сергій Кулаков, Ольга Ковальова
    07. Вальс ля мінор
    В’ячеслав Новиков
    08. Пісня Сольвейг (з музики до драми Генріка Ібсена «Пер Гюнт»)
    Олексій Горохов, Людмила Галяко
    09. Пісня Жайворонка, Березень (з циклу «Пори року»)
    Сергій Скринченко
    10. Адажієтто (з симфонії №5)
    Київський камерний оркестр
    11. Відображення у воді
    Борис Федоров
    12. Кроки на снігу
    Наталія Толпиго
    13. Гірлянда (з циклу «Два танці»)
    Борис Альков
    14. Вокаліз
    Елла Акритова, камерно-інструментальний ансамбль

Тривалість: 01:05:26
Мова: без слів
Аудіо-кодек: FLAC
Бітрейт: 494 кб/с
Джерело: власний ріп
Тип ріпу: image + cue + обкладинки
EAC Log

Exact Audio Copy V1.0 beta 2 from 29. April 2011

EAC extraction logfile from 7. March 2013, 9:32

Various / Класична музика для релаксації [Золота колекція]

Used drive : Optiarc DVD RW AD-7200A Adapter: 0 ID: 0

Read mode : Secure
Utilize accurate stream : Yes
Defeat audio cache : Yes
Make use of C2 pointers : No

Read offset correction : 48
Overread into Lead-In and Lead-Out : No
Fill up missing offset samples with silence : Yes
Delete leading and trailing silent blocks : No
Null samples used in CRC calculations : Yes
Used interface : Native Win32 interface for Win NT & 2000

Used output format : Internal WAV Routines
Sample format : 44.100 Hz; 16 Bit; Stereo

TOC of the extracted CD

Track | Start | Length | Start sector | End sector
---------------------------------------------------------
1 | 0:00.00 | 3:52.03 | 0 | 17402
2 | 3:52.03 | 3:05.00 | 17403 | 31277
3 | 6:57.03 | 6:33.05 | 31278 | 60757
4 | 13:30.08 | 3:59.00 | 60758 | 78682
5 | 17:29.08 | 3:08.05 | 78683 | 92787
6 | 20:37.13 | 6:08.11 | 92788 | 120398
7 | 26:45.24 | 4:50.07 | 120399 | 142155
8 | 31:35.31 | 4:27.02 | 142156 | 162182
9 | 36:02.33 | 2:08.04 | 162183 | 171786
10 | 38:10.37 | 8:16.03 | 171787 | 208989
11 | 46:26.40 | 5:50.04 | 208990 | 235243
12 | 52:16.44 | 4:13.05 | 235244 | 254223
13 | 56:29.49 | 2:58.11 | 254224 | 267584
14 | 59:27.60 | 5:58.01 | 267585 | 294435

Range status and errors

Selected range

Filename D:\Music\Various - Класична музика для релаксації [Золота колекція] (2005)\Various - Класична музика для релаксації [Золота колекція].wav

Peak level 94.5 %
Extraction speed 4.2 X
Range quality 100.0 %
Copy CRC 4575802D
Copy OK

No errors occurred

End of status report
Audiochecker

fooCDtect - foobar2000 + auCDtect, baralgin.

auCDtect: CD records authenticity detector, version 0.8.2
Copyright (c) 2004 Oleg Berngardt. All rights reserved.
Copyright (c) 2004 Alexander Djourik. All rights reserved.

mode: 0

===========================================
Track: 01. Аве Марія
Quality: CDDA 87%
===========================================
Track: 02. Адажіо
Quality: CDDA 54%
===========================================
Track: 03. Серенада
Quality: MPEG 89%
===========================================
Track: 04. Модерато (перша частина з сюїти у старовинному стилі)
Quality: CDDA 100%
===========================================
Track: 05. Аріозо
Quality: CDDA 43%
===========================================
Track: 06. Мрії кохання
Quality: MPEG 100%
===========================================
Track: 07. Вальс ля мінор
Quality: CDDA 43%
===========================================
Track: 08. Пісня Сольвейг (з музики до драми Генріка Ібсена «Пер Гюнт»)
Quality: Unknown
===========================================
Track: 09. Пісня Жайворонка, Березень (з циклу «Пори року»)
Quality: MPEG 100%
===========================================
Track: 10. Адажієтто (з симфонії №5)
Quality: CDDA 100%
===========================================
Track: 11. Відображення у воді
Quality: CDDA 92%
===========================================
Track: 12. Кроки на снігу
Quality: MPEG 100%
===========================================
Track: 13. Гірлянда (з циклу «Два танці»)
Quality: MPEG 100%
===========================================
Track: 14. Вокаліз
Quality: CDDA 100%
===========================================
Додаткова інформація:
Черговий диск серії "Золота колекція" цього разу дещо відрізняється від попередніх тим, що серед представлених тут композиторів-класиків немає українців. Втім, класична музика – як і будь-яка музика справжня – має до географії доволі дивне відношення. Тут, як і в джазі, наприклад, важливим є не тільки автор музики, а й виконавець її. В даному випадку маємо справу з фондовими записами Національної радіокомпанії України. І ці записи наочно доводять, що виконавська школа України і стояла, і стоїть на високому професійному рівні. Більше того, коли слухаєш цей диск, про професійність виконавців згадуєш навіть не одразу. Бо перше, на що звертаєш увагу, це – душевність. Мабуть, саме так можна назвати відчуття, коли розумієш, що у виконання мелодії вкладено не тільки технічну майстерність, а й серце. В цьому, можливо, одна з головних складових краси музичної – і тут цю красу чутно.

Умка




Якщо Ви справді бажаєте підтримати українське - після прослуховування, якщо музика вам сподобалась, придбайте ліцензійний диск. Підтримаймо вітчизняних виконавців!


Срібний реліз (на рейтинг впливає 50% завантаженого)
 Трекер:    Зареєстрований   

Завантажити / скачати українську музику



відео для новачків



 Зареєстрований:   2013-03-24 01:12
 Розмір:   268 MB 
 Оцінка музики:   9.9/10 (Голосів: 19)
   
katolik 
Поважний учасник


З нами з: 01.12.08
Востаннє: 27.11.16
Повідомлень: 192

2016-07-12 00:59  
ЧУДОВА КОЛЕКЦІЯ, щиро дякую за прекрасний реліз.
Ваш часовий пояс: GMT + 2 Години

Нова тема   Відповісти