Завантажити та скачати торренти українською


VA - Чари українського багатоголосся. Українські народні пісні [Серія "Золота колекція"] (2006) [FLAC] | Folk

Нові коментарі

Нова тема   Відповісти
Автор Повідомлення
Anonymous 







2013-03-23 12:02  
VA - Чари українського багатоголосся. Українські народні пісні [Серія "Золота колекція"] (2006) [FLAC] | Folk

VA - Чари українського багатоголосся. Українські народні пісні [Серія "Золота колекція"] (2006) [FLAC] | Folk


Стиль: Folk
Країна, місто: Україна, Київ
Видавець: Астра Рекордс
Виконавці: Вказані до кожного треку.

Пісні:
    1. Коло річки, коло броду (вок. тріо Українського народного хору ім. Г.Верьовки)
    2. Світи, місяченьку (вок. квартет "Коло")
    3. Шуміла сосна і явір (Поліський нар. анс. "Льонок")
    4. Гаю, гаю, зелен розмаю (чол. хор. капела муз.-хор. товариства України)
    5. Чия то долина (Держ. засл. Буковинський ансамбль пісні і танцю)
    6. Ой, чий то кінь стоїть (Квартет "Явір")
    7. Ой, при лужку (вок. тріо "Червона калина")
    8. Стоїть явір над водою (Київська чоловіча хорова капела ім. Л. Ревуцького)
    9. Тихо Дунай воду несе (Заслужена капела України "Трембіта")
    10. Стелися, барвінку (хор Київської консерваторії ім. П. Чайковського)
    11. Серце, Марусю (Київська чоловіча хорова капела ім. Л. Ревуцького)
    12. Коло мої хати зацвіли блавати (хор Укр. радіо)
    13. Молодичка-чарівничка (чол. хор. капела муз.-хор. товариства України)
    14. Чепурушка (Черкаський укр. нар. хор)
    15. На горі, горі їдуть мазури (Київська чоловіча хорова капела ім. Л. Ревуцького)
    16. Ой, у полі дві тополі (Держ. засл. Буковинський анс. пісні і танцю)
    17. Ой, пущу я кониченька (Український народний хор ім. Г.Верьовки)
    18. Ой, у полі криниченька (Поліський нар. анс. "Льонок")
    19. По садочку ходжу (Квартет "Явір")
    20. Ой, засвіти, місяченьку (вокальне тріо сестер Байко)
    21. Ой, у полі три криниченьки (Київська чоловіча хорова капела ім. Л. Ревуцького)
    22. Летіла зозуля (вок. тріо Українського народного хору ім. Г.Верьовки)
    23. Гиля, гиля, сірі гуси (вок. квартет "Коло")
    24. Цвіте терен (Заслужена капела України "Трембіта")
    25. Ой, з-за гори кам’яної (Держ. засл. академ. хор. капела України "Думка")
    26. Дуб на дуба похилився (вок. квартет "Коло")
log
Exact Audio Copy V1.0 beta 3 from 29. August 2011

Отчёт EAC об извлечении, выполненном 23. марта 2013, 11:18

Various / The Magic of ukrainian polyphony

Дисковод: TSSTcorpCDDVDW TS-L633A Adapter: 0 ID: 1

Режим чтения : Достоверность
Использование точного потока : Да
Отключение кэша аудио : Да
Использование указателей C2 : Нет

Коррекция смещения при чтении : 6
Способность читать области Lead-in и Lead-out : Нет
Заполнение пропущенных сэмплов тишиной : Да
Удаление блоков с тишиной в начале и конце : Нет
При вычислениях CRC использовались нулевые сэмплы : Да
Интерфейс : Встроенный Win32-интерфейс для Win NT/2000
Обработка зазоров : Добавлено к предыдущему треку

Выходной формат : Пользовательский кодировщик
Выбранный битрейт : 896 kBit/s
Качество : Высокий
Добавление ID3-тега : Нет
Утилита сжатия : C:\Program Files\Exact Audio Copy\FLAC\FLAC.EXE
Дополнительные параметры : -8 -V -T "ARTIST=%artist%" -T "TITLE=%title%" -T "ALBUM=%albumtitle%" -T "DATE=%year%" -T "TRACKNUMBER=%tracknr%" -T "GENRE=%genre%" -T "COMMENT=%comment%" -T "BAND=%albuminterpret%" -T "ALBUMARTIST=%albuminterpret%" -T "COMPOSER=%composer%" %haslyrics%--tag-from-file=LYRICS="%lyricsfile%"%haslyrics% -T "DISCNUMBER=%cdnumber%" -T "TOTALDISCS=%totalcds%" -T "TOTALTRACKS=%numtracks%" %hascover%--picture="%coverfile%"%hascover% %source% -o %dest%

TOC извлечённого CD

Трек | Старт | Длительность | Начальный сектор | Конечный сектор
---------------------------------------------------------------------
1 | 0:00.00 | 3:57.01 | 0 | 17775
2 | 3:57.01 | 3:46.01 | 17776 | 34726
3 | 7:43.02 | 3:32.03 | 34727 | 50629
4 | 11:15.05 | 3:19.08 | 50630 | 65562
5 | 14:34.13 | 3:48.08 | 65563 | 82670
6 | 18:22.21 | 3:24.00 | 82671 | 97970
7 | 21:46.21 | 2:57.02 | 97971 | 111247
8 | 24:43.23 | 4:01.04 | 111248 | 129326
9 | 28:44.27 | 3:12.06 | 129327 | 143732
10 | 31:56.33 | 1:55.03 | 143733 | 152360
11 | 33:51.36 | 1:34.01 | 152361 | 159411
12 | 35:25.37 | 1:43.02 | 159412 | 167138
13 | 37:08.39 | 2:07.01 | 167139 | 176664
14 | 39:15.40 | 2:03.07 | 176665 | 185896
15 | 41:18.47 | 2:12.02 | 185897 | 195798
16 | 43:30.49 | 2:25.04 | 195799 | 206677
17 | 45:55.53 | 4:45.02 | 206678 | 228054
18 | 50:40.55 | 3:11.02 | 228055 | 242381
19 | 53:51.57 | 2:45.07 | 242382 | 254763
20 | 56:36.64 | 2:51.04 | 254764 | 267592
21 | 59:27.68 | 3:50.00 | 267593 | 284842
22 | 63:17.68 | 3:00.04 | 284843 | 298346
23 | 66:17.72 | 4:18.01 | 298347 | 317697
24 | 70:35.73 | 4:41.01 | 317698 | 338773
25 | 75:16.74 | 2:34.05 | 338774 | 350328
26 | 77:51.04 | 1:14.07 | 350329 | 355885

Трек 1

Имя файла C:\Users\toshiba\Downloads\RelizyZ11\VA - Chary ukrayinskoho bahatoholossia. Ukrayinski narodni pisni [Seriya 'Zolota kolektsiya'] (2006) [FLAC]\01. Kolo richky, kolo brodu.wav

Длина предзазора 0:00:02.00

Пиковый уровень 94.5 %
Скорость извлечения 1.0 X
Качество трека 99.9 %
CRC теста 959590B5
CRC копии 959590B5
Копирование... OK

Трек 2

Имя файла C:\Users\toshiba\Downloads\RelizyZ11\VA - Chary ukrayinskoho bahatoholossia. Ukrayinski narodni pisni [Seriya 'Zolota kolektsiya'] (2006) [FLAC]\02. Svity, misiachen'ku.wav

Длина предзазора 0:00:02.00

Пиковый уровень 94.5 %
Скорость извлечения 1.3 X
Качество трека 100.0 %
CRC теста F535FEBE
CRC копии F535FEBE
Копирование... OK

Трек 3

Имя файла C:\Users\toshiba\Downloads\RelizyZ11\VA - Chary ukrayinskoho bahatoholossia. Ukrayinski narodni pisni [Seriya 'Zolota kolektsiya'] (2006) [FLAC]\03. Shumila sosna i yavir.wav

Длина предзазора 0:00:02.00

Пиковый уровень 98.6 %
Скорость извлечения 1.4 X
Качество трека 100.0 %
CRC теста 443E256A
CRC копии 443E256A
Копирование... OK

Трек 4

Имя файла C:\Users\toshiba\Downloads\RelizyZ11\VA - Chary ukrayinskoho bahatoholossia. Ukrayinski narodni pisni [Seriya 'Zolota kolektsiya'] (2006) [FLAC]\04. Hayu, hayu, zelen rozmayu.wav

Длина предзазора 0:00:02.00

Пиковый уровень 94.4 %
Скорость извлечения 1.5 X
Качество трека 100.0 %
CRC теста E604741A
CRC копии E604741A
Копирование... OK

Трек 5

Имя файла C:\Users\toshiba\Downloads\RelizyZ11\VA - Chary ukrayinskoho bahatoholossia. Ukrayinski narodni pisni [Seriya 'Zolota kolektsiya'] (2006) [FLAC]\05. Chyia to dolyna.wav

Длина предзазора 0:00:02.00

Пиковый уровень 94.6 %
Скорость извлечения 1.5 X
Качество трека 100.0 %
CRC теста 2F7550D2
CRC копии 2F7550D2
Копирование... OK

Трек 6

Имя файла C:\Users\toshiba\Downloads\RelizyZ11\VA - Chary ukrayinskoho bahatoholossia. Ukrayinski narodni pisni [Seriya 'Zolota kolektsiya'] (2006) [FLAC]\06. Oy chiy to kin' stoyit'.wav

Длина предзазора 0:00:02.00

Пиковый уровень 94.5 %
Скорость извлечения 1.6 X
Качество трека 100.0 %
CRC теста 028D3D4C
CRC копии 028D3D4C
Копирование... OK

Трек 7

Имя файла C:\Users\toshiba\Downloads\RelizyZ11\VA - Chary ukrayinskoho bahatoholossia. Ukrayinski narodni pisni [Seriya 'Zolota kolektsiya'] (2006) [FLAC]\07. Oy pry luzhku.wav

Длина предзазора 0:00:02.00

Пиковый уровень 94.2 %
Скорость извлечения 1.6 X
Качество трека 100.0 %
CRC теста E8AFB049
CRC копии E8AFB049
Копирование... OK

Трек 8

Имя файла C:\Users\toshiba\Downloads\RelizyZ11\VA - Chary ukrayinskoho bahatoholossia. Ukrayinski narodni pisni [Seriya 'Zolota kolektsiya'] (2006) [FLAC]\08. Stoyit' yavir nad vodoyu.wav

Длина предзазора 0:00:02.00

Пиковый уровень 94.4 %
Скорость извлечения 1.8 X
Качество трека 100.0 %
CRC теста E663E793
CRC копии E663E793
Копирование... OK

Трек 9

Имя файла C:\Users\toshiba\Downloads\RelizyZ11\VA - Chary ukrayinskoho bahatoholossia. Ukrayinski narodni pisni [Seriya 'Zolota kolektsiya'] (2006) [FLAC]\09. Tyho Dunay vodu nese.wav

Длина предзазора 0:00:02.00

Пиковый уровень 93.7 %
Скорость извлечения 1.8 X
Качество трека 100.0 %
CRC теста 045F7A18
CRC копии 045F7A18
Копирование... OK

Трек 10

Имя файла C:\Users\toshiba\Downloads\RelizyZ11\VA - Chary ukrayinskoho bahatoholossia. Ukrayinski narodni pisni [Seriya 'Zolota kolektsiya'] (2006) [FLAC]\10. Stelysia, barvinku.wav

Длина предзазора 0:00:02.00

Пиковый уровень 94.4 %
Скорость извлечения 1.6 X
Качество трека 100.0 %
CRC теста 638E97DD
CRC копии 638E97DD
Копирование... OK

Трек 11

Имя файла C:\Users\toshiba\Downloads\RelizyZ11\VA - Chary ukrayinskoho bahatoholossia. Ukrayinski narodni pisni [Seriya 'Zolota kolektsiya'] (2006) [FLAC]\11. Sertse, Marusiu.wav

Длина предзазора 0:00:02.00

Пиковый уровень 94.3 %
Скорость извлечения 1.6 X
Качество трека 100.0 %
CRC теста 1BFF243C
CRC копии 1BFF243C
Копирование... OK

Трек 12

Имя файла C:\Users\toshiba\Downloads\RelizyZ11\VA - Chary ukrayinskoho bahatoholossia. Ukrayinski narodni pisni [Seriya 'Zolota kolektsiya'] (2006) [FLAC]\12. Kolo moyi haty zatsvily blavaty.wav

Длина предзазора 0:00:02.00

Пиковый уровень 94.3 %
Скорость извлечения 1.6 X
Качество трека 100.0 %
CRC теста 09374559
CRC копии 09374559
Копирование... OK

Трек 13

Имя файла C:\Users\toshiba\Downloads\RelizyZ11\VA - Chary ukrayinskoho bahatoholossia. Ukrayinski narodni pisni [Seriya 'Zolota kolektsiya'] (2006) [FLAC]\13. Molodychka-charivnychka.wav

Длина предзазора 0:00:02.00

Пиковый уровень 94.0 %
Скорость извлечения 1.7 X
Качество трека 100.0 %
CRC теста E006027A
CRC копии E006027A
Копирование... OK

Трек 14

Имя файла C:\Users\toshiba\Downloads\RelizyZ11\VA - Chary ukrayinskoho bahatoholossia. Ukrayinski narodni pisni [Seriya 'Zolota kolektsiya'] (2006) [FLAC]\14. Chepurushka.wav

Длина предзазора 0:00:02.00

Пиковый уровень 94.3 %
Скорость извлечения 1.8 X
Качество трека 100.0 %
CRC теста 53141ACC
CRC копии 53141ACC
Копирование... OK

Трек 15

Имя файла C:\Users\toshiba\Downloads\RelizyZ11\VA - Chary ukrayinskoho bahatoholossia. Ukrayinski narodni pisni [Seriya 'Zolota kolektsiya'] (2006) [FLAC]\15. Na gori, gori, yidut' mazury.wav

Длина предзазора 0:00:02.00

Пиковый уровень 94.4 %
Скорость извлечения 1.8 X
Качество трека 100.0 %
CRC теста 33129CB3
CRC копии 33129CB3
Копирование... OK

Трек 16

Имя файла C:\Users\toshiba\Downloads\RelizyZ11\VA - Chary ukrayinskoho bahatoholossia. Ukrayinski narodni pisni [Seriya 'Zolota kolektsiya'] (2006) [FLAC]\16. Oy u poli dvi topoli.wav

Длина предзазора 0:00:02.00

Пиковый уровень 94.7 %
Скорость извлечения 1.1 X
Качество трека 99.9 %
CRC теста E5E77274
CRC копии E5E77274
Копирование... OK

Трек 17

Имя файла C:\Users\toshiba\Downloads\RelizyZ11\VA - Chary ukrayinskoho bahatoholossia. Ukrayinski narodni pisni [Seriya 'Zolota kolektsiya'] (2006) [FLAC]\17. Oy puschu ya konychen'ka.wav

Длина предзазора 0:00:02.00

Пиковый уровень 94.4 %
Скорость извлечения 2.2 X
Качество трека 100.0 %
CRC теста DF618B3E
CRC копии DF618B3E
Копирование... OK

Трек 18

Имя файла C:\Users\toshiba\Downloads\RelizyZ11\VA - Chary ukrayinskoho bahatoholossia. Ukrayinski narodni pisni [Seriya 'Zolota kolektsiya'] (2006) [FLAC]\18. Oy u poli krynychen'ka.wav

Длина предзазора 0:00:02.00

Пиковый уровень 94.5 %
Скорость извлечения 2.1 X
Качество трека 100.0 %
CRC теста FD52625D
CRC копии FD52625D
Копирование... OK

Трек 19

Имя файла C:\Users\toshiba\Downloads\RelizyZ11\VA - Chary ukrayinskoho bahatoholossia. Ukrayinski narodni pisni [Seriya 'Zolota kolektsiya'] (2006) [FLAC]\19. Po sadochku hodzhu.wav

Длина предзазора 0:00:02.00

Пиковый уровень 94.5 %
Скорость извлечения 2.1 X
Качество трека 100.0 %
CRC теста AF9EA597
CRC копии AF9EA597
Копирование... OK

Трек 20

Имя файла C:\Users\toshiba\Downloads\RelizyZ11\VA - Chary ukrayinskoho bahatoholossia. Ukrayinski narodni pisni [Seriya 'Zolota kolektsiya'] (2006) [FLAC]\20. Oy zasvity misyachen'ku.wav

Длина предзазора 0:00:02.00

Пиковый уровень 95.2 %
Скорость извлечения 2.2 X
Качество трека 100.0 %
CRC теста 2520C26B
CRC копии 2520C26B
Копирование... OK

Трек 21

Имя файла C:\Users\toshiba\Downloads\RelizyZ11\VA - Chary ukrayinskoho bahatoholossia. Ukrayinski narodni pisni [Seriya 'Zolota kolektsiya'] (2006) [FLAC]\21. Oy u poli try krynychen'ky.wav

Длина предзазора 0:00:02.00

Пиковый уровень 94.8 %
Скорость извлечения 2.3 X
Качество трека 100.0 %
CRC теста 05969177
CRC копии 05969177
Копирование... OK

Трек 22

Имя файла C:\Users\toshiba\Downloads\RelizyZ11\VA - Chary ukrayinskoho bahatoholossia. Ukrayinski narodni pisni [Seriya 'Zolota kolektsiya'] (2006) [FLAC]\22. Letila zozulia.wav

Длина предзазора 0:00:02.00

Пиковый уровень 94.4 %
Скорость извлечения 2.3 X
Качество трека 100.0 %
CRC теста F024713C
CRC копии F024713C
Копирование... OK

Трек 23

Имя файла C:\Users\toshiba\Downloads\RelizyZ11\VA - Chary ukrayinskoho bahatoholossia. Ukrayinski narodni pisni [Seriya 'Zolota kolektsiya'] (2006) [FLAC]\23. Hylia, hylia siri gusy.wav

Длина предзазора 0:00:02.00

Пиковый уровень 94.3 %
Скорость извлечения 2.5 X
Качество трека 100.0 %
CRC теста 7D895253
CRC копии 7D895253
Копирование... OK

Трек 24

Имя файла C:\Users\toshiba\Downloads\RelizyZ11\VA - Chary ukrayinskoho bahatoholossia. Ukrayinski narodni pisni [Seriya 'Zolota kolektsiya'] (2006) [FLAC]\24. Tsvite teren.wav

Длина предзазора 0:00:02.00

Пиковый уровень 94.6 %
Скорость извлечения 2.5 X
Качество трека 100.0 %
CRC теста 9DB317AA
CRC копии 9DB317AA
Копирование... OK

Трек 25

Имя файла C:\Users\toshiba\Downloads\RelizyZ11\VA - Chary ukrayinskoho bahatoholossia. Ukrayinski narodni pisni [Seriya 'Zolota kolektsiya'] (2006) [FLAC]\25. Oy z-za gory kamianoyi.wav

Длина предзазора 0:00:02.00

Пиковый уровень 94.6 %
Скорость извлечения 2.3 X
Качество трека 100.0 %
CRC теста 97A10A4D
CRC копии 97A10A4D
Копирование... OK

Трек 26

Имя файла C:\Users\toshiba\Downloads\RelizyZ11\VA - Chary ukrayinskoho bahatoholossia. Ukrayinski narodni pisni [Seriya 'Zolota kolektsiya'] (2006) [FLAC]\26. Dub na duba pohylyvsia.wav

Длина предзазора 0:00:02.00

Пиковый уровень 94.3 %
Скорость извлечения 1.9 X
Качество трека 100.0 %
CRC теста 0BABDD79
CRC копии 0BABDD79
Копирование... OK

Ошибок не произошло

Конец отчёта

---- CUETools DB Plugin V2.1.3

[CTDB TOCID: V2f_COT9xI9I.bYDT01VitSRXRA-] disk not present in database, Submit result: V2f_COT9xI9I.bYDT01VitSRXRA- has been uploaded

------------------------------------------------------------

Exact Audio Copy V1.0 beta 3 from 29. August 2011

Отчёт EAC об извлечении, выполненном 3. апреля 2013, 19:56

Various / The Magic of ukrainian polyphony

Дисковод: TSSTcorpCDDVDW TS-L633A Adapter: 0 ID: 1

Режим чтения : Достоверность
Использование точного потока : Да
Отключение кэша аудио : Да
Использование указателей C2 : Нет

Коррекция смещения при чтении : 6
Способность читать области Lead-in и Lead-out : Нет
Заполнение пропущенных сэмплов тишиной : Да
Удаление блоков с тишиной в начале и конце : Нет
При вычислениях CRC использовались нулевые сэмплы : Да
Интерфейс : Встроенный Win32-интерфейс для Win NT/2000

Выходной формат : Внутренние WAV-операции
Формат сэмплов : 44.100 Гц; 16 бит; стерео

TOC извлечённого CD

Трек | Старт | Длительность | Начальный сектор | Конечный сектор
---------------------------------------------------------------------
1 | 0:00.00 | 3:57.01 | 0 | 17775
2 | 3:57.01 | 3:46.01 | 17776 | 34726
3 | 7:43.02 | 3:32.03 | 34727 | 50629
4 | 11:15.05 | 3:19.08 | 50630 | 65562
5 | 14:34.13 | 3:48.08 | 65563 | 82670
6 | 18:22.21 | 3:24.00 | 82671 | 97970
7 | 21:46.21 | 2:57.02 | 97971 | 111247
8 | 24:43.23 | 4:01.04 | 111248 | 129326
9 | 28:44.27 | 3:12.06 | 129327 | 143732
10 | 31:56.33 | 1:55.03 | 143733 | 152360
11 | 33:51.36 | 1:34.01 | 152361 | 159411
12 | 35:25.37 | 1:43.02 | 159412 | 167138
13 | 37:08.39 | 2:07.01 | 167139 | 176664
14 | 39:15.40 | 2:03.07 | 176665 | 185896
15 | 41:18.47 | 2:12.02 | 185897 | 195798
16 | 43:30.49 | 2:25.04 | 195799 | 206677
17 | 45:55.53 | 4:45.02 | 206678 | 228054
18 | 50:40.55 | 3:11.02 | 228055 | 242381
19 | 53:51.57 | 2:45.07 | 242382 | 254763
20 | 56:36.64 | 2:51.04 | 254764 | 267592
21 | 59:27.68 | 3:50.00 | 267593 | 284842
22 | 63:17.68 | 3:00.04 | 284843 | 298346
23 | 66:17.72 | 4:18.01 | 298347 | 317697
24 | 70:35.73 | 4:41.01 | 317698 | 338773
25 | 75:16.74 | 2:34.05 | 338774 | 350328
26 | 77:51.04 | 1:14.07 | 350329 | 355885

Характеристики диапазона извлечения и сообщения об ошибках

Выбранный диапазон

Имя файла C:\Users\toshiba\Downloads\RelizyZ11\VA - Chary ukrayinskoho bahatoholossia. Ukrayinski narodni pisni [Seriya 'Zolota kolektsiya'] (2006) [FLAC]\Various - The Magic of ukrainian polyphony.wav

Пиковый уровень 98.6 %
Скорость извлечения 4.2 X
Качество диапазона 100.0 %
CRC копии 39286A54
Копирование... OK

Ошибок не произошло

AccurateRip: сводка

Трек 1 отсутствует в базе данных
Трек 2 отсутствует в базе данных
Трек 3 отсутствует в базе данных
Трек 4 отсутствует в базе данных
Трек 5 отсутствует в базе данных
Трек 6 отсутствует в базе данных
Трек 7 отсутствует в базе данных
Трек 8 отсутствует в базе данных
Трек 9 отсутствует в базе данных
Трек 10 отсутствует в базе данных
Трек 11 отсутствует в базе данных
Трек 12 отсутствует в базе данных
Трек 13 отсутствует в базе данных
Трек 14 отсутствует в базе данных
Трек 15 отсутствует в базе данных
Трек 16 отсутствует в базе данных
Трек 17 отсутствует в базе данных
Трек 18 отсутствует в базе данных
Трек 19 отсутствует в базе данных
Трек 20 отсутствует в базе данных
Трек 21 отсутствует в базе данных
Трек 22 отсутствует в базе данных
Трек 23 отсутствует в базе данных
Трек 24 отсутствует в базе данных
Трек 25 отсутствует в базе данных
Трек 26 отсутствует в базе данных

Ни одного трека нет в базе AccurateRip

Конец отчёта

---- CUETools DB Plugin V2.1.3

[CTDB TOCID: V2f_COT9xI9I.bYDT01VitSRXRA-] found, Submit result: already submitted
[b8e42c3a] (1/1) Accurately ripped
Тривалість: 01:19:05
Мова: українська
Аудіо-кодек: FLAC
Бітрейт: 518 кб/с
Джерело: власний ріп з диску
Тип ріпу: image + cue + обкладинки

Додаткова інформація:
Жоден музичний інструмент не здатен перевершити силу виразності людського голосу – або майже не здатен. Принаймні, саме з голосом порівнюють звучання інструменту – коли він звучить так гарно і живо, що це здається дивом. Випадки, коли скрипка плаче, флейта співає, валторна шепоче – саме з цієї серії. А якщо голос є еталоном виразності – є і музика, в якій це проявляється найбільш яскраво. Природно, це музика, в якій голос виступає єдиним інструментом – тобто музика а-капела. Останнім часом стали дуже популярними естрадно-джазові варіанти таких колективів, але, за великим рахунком, народні пісні завжди на початку виконувались акапельно. Згодом могли застосовуватись якісь інші інструменти, але спочатку завжди був – просто голос. Пізніше цю традицію продовжила і розвинула музика духовна – і тільки з появою джазу такий спів вийшов на широку, популярну естраду. Але повернімось до початку, до музики народної – саме народні українські пісні зібрано на цій платівці. Цього разу виконання не автентичне – Ви почуєте пісні у виконанні серйозних професіоналів (деякі з них, як от Державний заслужений академічний народний хор ім. Г. Верьовки – професіонали зі світовим ім’ям). Почуєте – і, я певен, не вперше подумки подякуєте укладачам серії "Золота колекція", їхньому терпінню і смаку. Вміння зі всього величезного обсягу фондів Національної радіокомпанії України відбирати настільки якісний матеріал, правильно це все компонувати – велика справа, кропітка робота. Зате і результат – вищого ґатунку.

Рік видання: 2006

Всі пісні виконуються "A capella", тобто без супроводу музичних інструментів.


Також на Торрент-Толоці Гуртом ви можете знайти:



Увага! Торрент-файл оновлено 03.04.13!


Якщо Ви справді бажаєте підтримати українське - після прослуховування, якщо музика вам сподобалась,
придбайте ліцензійний диск.
Підтримаймо вітчизняних виконавців!


Срібний реліз (на рейтинг впливає 50% завантаженого)
 Трекер:    Зареєстрований   

Завантажити / скачати українську музику



відео для новачків



 Зареєстрований:   2013-04-03 19:23
 Розмір:   296 MB 
 Оцінка музики:   10/10 (Голосів: 5)
   
chorny 
Новенький


З нами з: 17.12.08
Востаннє: 03.12.16
Повідомлень: 8

2013-04-08 16:37  
дуже гарно.....
Ваш часовий пояс: GMT + 2 Години

Нова тема   Відповісти