Завантажити та скачати торренти українською


Гол! / Goal! (2005) 720p Ukr/Eng | Sub Eng

Нові коментарі

Нова тема   Відповісти
Автор Повідомлення
braveboy 
Відео Гуртом - команда HD
Відео Гуртом - команда HD


З нами з: 15.06.10
Востаннє: 29.10.16
Повідомлень: 958

2013-03-21 23:39  

Гол! / Goal! (2005) 720p Ukr/Eng | Sub Eng


Гол! / Goal! (2005) 720p Ukr/Eng | Sub Eng

«Все починається з мрії»

Жанр: спорт, біографічний, драма
Країна: Великобританія, США



Кіностудія / кінокомпанія: Touchstone Pictures, Milkshake Films
Режисер: Денні Кеннон / Danny Cannon
Актори: Куно Беккер / Kuno Becker /, Алессандро Нівола / Alessandro Nivola /, Марсель Юреш / Marcel Iures /, Стівен Діллейн / Stephen Dillane /, Анна Фріл / Anna Friel /, Кіран О'Брайен / Kieran O'Brien /

Сюжет:
Все своє життя Сантьяго мріяв тільки про одне - стати професійним футболістом. Заради цього він переїхав з рідного міста в найбідніший район Лос-Анджелеса, міняв роботу за роботою і невідривно стежив за кращими футбольними матчами світу. Мрії іноді збуваються - тепер Сантьяго не просто футболіст, він грає за «Ньюкасл» і може показати всім, на що здатний!



Тривалість: 01:58:08
Якість: 720p
Відео:
кодек:
розмір кадру: 1280 х 534
бітрейт: 4268 кб/с

Аудіо # 1:
мова: українська |1+1|
переклад: двоголосий закадровий
кодек: 5.1
бітрейт: 384 кб/с

Аудіо # 2:
мова: англійська
переклад: оригінал
кодек: 5.1
бітрейт: 640 кб/с

Джерело озвучення:


Субтитри:
мова: англійська
тип: програмні (м'які)
формат: *.srt
720p by braveboy
log

[info]: frame I:1708 Avg QP:15.33 size: 88898
[info]: frame P:43246 Avg QP:17.34 size: 38142
[info]: frame B:124977 Avg QP:18.88 size: 15839
[info]: consecutive B-frames: 4.1% 4.8% 12.1% 28.0% 17.2% 27.3% 6.5%
[info]: mb I I16..4: 10.0% 72.6% 17.4%
[info]: mb P I16..4: 4.5% 26.3% 4.2% P16..4: 28.1% 17.6% 11.0% 0.8% 0.2% skip: 7.2%
[info]: mb B I16..4: 0.8% 3.4% 0.6% B16..8: 36.0% 16.4% 4.5% direct: 8.3% skip:30.1% L0:43.6% L1:41.1% BI:15.4%
[info]: 8x8 transform intra:74.0% inter:59.5%
[info]: coded y,uvDC,uvAC intra: 81.4% 84.2% 63.5% inter: 37.4% 38.4% 11.4%
[info]: i16 v,h,dc,p: 46% 12% 6% 35%
[info]: i8 v,h,dc,ddl,ddr,vr,hd,vl,hu: 14% 10% 9% 8% 11% 12% 11% 11% 12%
[info]: i4 v,h,dc,ddl,ddr,vr,hd,vl,hu: 16% 10% 5% 8% 14% 13% 13% 10% 11%
[info]: i8c dc,h,v,p: 43% 24% 20% 14%
[info]: Weighted P-Frames: Y:11.2% UV:6.8%
[info]: ref P L0: 45.8% 11.8% 19.1% 7.0% 5.9% 3.9% 3.7% 2.4% 0.5% 0.0%
[info]: ref B L0: 71.3% 13.4% 6.7% 3.8% 2.7% 1.5% 0.6%
[info]: ref B L1: 92.3
[info]: kb/s:4267.63
MediaInfo
Format : Matroska
Format version : Version 4 / Version 2
File size : 4.37 GiB
Duration : 1h 58mn
Overall bit rate : 5 293 Kbps
Movie name : Goal (2005) 720p by braveboy
Encoded date : UTC 2013-03-21 21:05:34
Writing application : mkvmerge v6.1.0 ('Old Devil') built on Mar 2 2013 14:32:37
Writing library : libebml v1.3.0 + libmatroska v1.4.0

Video
ID : 1
Format : AVC
Format/Info : Advanced Video Codec
Format profile : [email protected]
Format settings, CABAC : Yes
Format settings, ReFrames : 8 frames
Codec ID : V_MPEG4/ISO/AVC
Duration : 1h 58mn
Bit rate : 4 268 Kbps
Width : 1 280 pixels
Height : 534 pixels
Display aspect ratio : 2.40:1
Frame rate mode : Constant
Frame rate : 23.976 fps
Color space : YUV
Chroma subsampling : 4:2:0
Bit depth : 8 bits
Scan type : Progressive
Bits/(Pixel*Frame) : 0.260
Stream size : 3.44 GiB (79%)
Title : Goal (2005) 720p by braveboy
Writing library : core 129 r2245 bc13772
Encoding settings : cabac=1 / ref=8 / deblock=1:-3:-3 / analyse=0x3:0x133 / me=umh / subme=9 / psy=1 / psy_rd=0.85:0.00 / mixed_ref=1 / me_range=24 / chroma_me=1 / trellis=1 / 8x8dct=1 / cqm=0 / deadzone=21,11 / fast_pskip=0 / chroma_qp_offset=-2 / threads=6 / lookahead_threads=1 / sliced_threads=0 / nr=0 / decimate=0 / interlaced=0 / bluray_compat=0 / constrained_intra=0 / bframes=6 / b_pyramid=2 / b_adapt=2 / b_bias=0 / direct=1 / weightb=1 / open_gop=0 / weightp=2 / keyint=240 / keyint_min=23 / scenecut=40 / intra_refresh=0 / rc=2pass / mbtree=0 / bitrate=4268 / ratetol=1.0 / qcomp=0.60 / qpmin=10 / qpmax=51 / qpstep=4 / cplxblur=20.0 / qblur=0.5 / ip_ratio=1.40 / pb_ratio=1.30 / aq=1:1.00
Default : Yes
Forced : No

Audio #1
ID : 2
Format : AC-3
Format/Info : Audio Coding 3
Mode extension : CM (complete main)
Format settings, Endianness : Big
Codec ID : A_AC3
Duration : 1h 58mn
Bit rate mode : Constant
Bit rate : 384 Kbps
Channel(s) : 6 channels
Channel positions : Front: L C R, Side: L R, LFE
Sampling rate : 48.0 KHz
Bit depth : 16 bits
Compression mode : Lossy
Stream size : 324 MiB (7%)
Title : 5.1 @ 384 kbps [1+1]
Language : Ukrainian
Default : Yes
Forced : No

Audio #2
ID : 3
Format : AC-3
Format/Info : Audio Coding 3
Mode extension : CM (complete main)
Format settings, Endianness : Big
Codec ID : A_AC3
Duration : 1h 58mn
Bit rate mode : Constant
Bit rate : 640 Kbps
Channel(s) : 6 channels
Channel positions : Front: L C R, Side: L R, LFE
Sampling rate : 48.0 KHz
Bit depth : 16 bits
Compression mode : Lossy
Stream size : 541 MiB (12%)
Title : 5.1 @ 640 kbps
Language : English
Default : No
Forced : No

Text
ID : 4
Format : UTF-8
Codec ID : S_TEXT/UTF8
Codec ID/Info : UTF-8 Plain Text
Title : Full
Language : English
Default : No
Forced : No

Menu
00:00:00.000 : en:00:00:00.000
00:05:33.917 : en:00:05:33.917
00:11:25.268 : en:00:11:25.268
00:18:13.217 : en:00:18:13.217
00:23:11.473 : en:00:23:11.473
00:29:24.805 : en:00:29:24.805
00:35:32.213 : en:00:35:32.213
00:40:44.525 : en:00:40:44.525
00:48:34.620 : en:00:48:34.620
00:55:33.580 : en:00:55:33.580
01:01:54.002 : en:01:01:54.002
01:08:54.881 : en:01:08:54.881
01:13:24.358 : en:01:13:24.358
01:19:43.237 : en:01:19:43.237
01:26:01.114 : en:01:26:01.114
01:31:21.434 : en:01:31:21.434
01:33:50.625 : en:01:33:50.625
01:38:35.993 : en:01:38:35.993
01:44:16.834 : en:01:44:16.834
01:53:00.774 : en:01:53:00.774
Скріншоти




Особиста оцінка: 0 - не дивився


 Трекер:    Зареєстрований   

Завантажити / скачати фільм українською



відео для новачків



 Зареєстрований:   2013-03-21 23:39
 Розмір:   4.37 GB 
 Оцінка фільму:   9.9/10 (Голосів: 8)
   
Інші релізи
   Гол! / Goal! (2005) Ukr/Eng ProgBassing  1 / 0   1.53 GB   2008-11-21 00:38 
waldi-hurtom 
VIP


З нами з: 07.10.12
Востаннє: 05.12.16
Повідомлень: 611

2013-04-01 10:05  
Чудовий фільм, хоч я і не фанат спорту. 9 балів.
Ваш часовий пояс: GMT + 2 Години

Нова тема   Відповісти