Завантажити та скачати торренти українською


Буття - Поклонімося (Архаїчні колядки та щедрівки. Пісні. Танці) (2002) [FLAC] | Folk

Нові коментарі

Нова тема   Відповісти
Автор Повідомлення
Anonymous 







2013-03-21 23:15  
Буття - Поклонімося (Архаїчні колядки та щедрівки. Пісні. Танці) (2002) [FLAC] | Folk

Буття - Поклонімося (Архаїчні колядки та щедрівки. Пісні. Танці) (2002) [FLAC] | Folk


Стиль: Folk
Країна, місто: Україна, Київ
Сайти: Офіційний сайт
Видавець: Буття
Виконавці (потреково):
Олег Бут - спів (2-4, 6-8, 10-11, 13-15, 17-18, 20-21, 23), скрипка (5, 9, 12, 16, 22), сопілка (19)
Оксана Бут - спів (2-3, 7-8 13, 17-20, 22), ударний інструмент (5, 9, 12, 16)
Василь Бут - спів (2, 4, 8, 10, 12, 14-16, 18-19, 21, 23)
Северин Данилейко - спів (2-4, 6-8, 10-11, 13-15, 17-18, 21, 23), скрипка (9), скрипка-втора (5, 12, 16)
Дмитро Сидоров - спів (2, 4, 6, 8, 10, 12, 15-16, 18, 21, 23)
Кий Данилейко - спів (11)

Пісні:
    1. Вступ
    2. Чи вдома вдома (колядка, Житомир-Радомишль-Ставки)
    3. Чи вдома, вдома наш пан хазяїн (колядка, Суми-Кролевець-Гаркуша)
    4. Святий вечір, добрий вечір (щедрівка, Житомир-Овруч-Можари)
    5. Полька-надобридень (весільне награвання, Вінниця-Гайсин-Зятківці)
    6. Добрий вечір, люди (колядка, Київ-Кагарлик-Переселення)
    7. Ой рано рано кури попєлі (щедрівка, Гомель-Столин-Молочки)
    8. Ой з-за гаю зеленого (колядка, Житомир-Овруч-Можари)
    9. Полька-бабочка (Вінниця-Гайсин-Зятківці)
    10. Ой з-за гір з-за гір (лірична, Суми-Охтирка-Пилівка)
    11. Ой од Києва до села (солдатська, Суми-Кролевець-Мутин)
    12. Катерина (вальс, Тернопіль-Підволочиськ-Жеребки)
    13. Без тучі без грому (лірична, Чернігів-Короп-Червоне)
    14. Тихі води бережечки зносять (балада, Чернігів-Короп-Червоне)
    15. Ой на горі горі (лірична, Полтава-Хорол-Новачиха)
    16. Перелаз (вальс, Тернопіль-Підволочиськ-Жеребки)
    17. Ой лєсом лєсом (колядка, Суми-Кролевець-Гаркуша)
    18. Ой ти наш пане, пане Іване (колядка, Житомир-Овруч-Можари)
    19. Щедрий вечір (щедрівка, Житомир-Овруч-Хлупляни)
    20. Що учора ізвечора (маланкова, Полтава-Козельщина-Федорівка)
    21. Ой в дядька в дядька (щедрівка, Київ-Кагарлик-Переселення)
    22. Пчольная матка з дітками йде (колядка, Житомир-Овруч-Оленичі)
    23. Поклонімося цьому сударю (колядка, Суми-Охтирка-Пилівка)
log
Exact Audio Copy V1.0 beta 3 from 29. August 2011

Отчёт EAC об извлечении, выполненном 21. марта 2013, 22:52

Buttja / Poklonimosja

Дисковод: TSSTcorpCDDVDW TS-L633A Adapter: 0 ID: 1

Режим чтения : Достоверность
Использование точного потока : Да
Отключение кэша аудио : Да
Использование указателей C2 : Нет

Коррекция смещения при чтении : 6
Способность читать области Lead-in и Lead-out : Нет
Заполнение пропущенных сэмплов тишиной : Да
Удаление блоков с тишиной в начале и конце : Нет
При вычислениях CRC использовались нулевые сэмплы : Да
Интерфейс : Встроенный Win32-интерфейс для Win NT/2000
Обработка зазоров : Добавлено к предыдущему треку

Выходной формат : Пользовательский кодировщик
Выбранный битрейт : 896 kBit/s
Качество : Высокий
Добавление ID3-тега : Нет
Утилита сжатия : C:\Program Files\Exact Audio Copy\FLAC\FLAC.EXE
Дополнительные параметры : -8 -V -T "ARTIST=%artist%" -T "TITLE=%title%" -T "ALBUM=%albumtitle%" -T "DATE=%year%" -T "TRACKNUMBER=%tracknr%" -T "GENRE=%genre%" -T "COMMENT=%comment%" -T "BAND=%albuminterpret%" -T "ALBUMARTIST=%albuminterpret%" -T "COMPOSER=%composer%" %haslyrics%--tag-from-file=LYRICS="%lyricsfile%"%haslyrics% -T "DISCNUMBER=%cdnumber%" -T "TOTALDISCS=%totalcds%" -T "TOTALTRACKS=%numtracks%" %hascover%--picture="%coverfile%"%hascover% %source% -o %dest%

TOC извлечённого CD

Трек | Старт | Длительность | Начальный сектор | Конечный сектор
---------------------------------------------------------------------
1 | 0:00.00 | 1:43.56 | 0 | 7780
2 | 1:43.56 | 3:32.41 | 7781 | 23721
3 | 5:16.22 | 5:35.35 | 23722 | 48881
4 | 10:51.57 | 1:28.29 | 48882 | 55510
5 | 12:20.11 | 2:36.13 | 55511 | 67223
6 | 14:56.24 | 1:18.28 | 67224 | 73101
7 | 16:14.52 | 2:40.28 | 73102 | 85129
8 | 18:55.05 | 3:12.54 | 85130 | 99583
9 | 22:07.59 | 1:40.45 | 99584 | 107128
10 | 23:48.29 | 3:50.22 | 107129 | 124400
11 | 27:38.51 | 3:28.14 | 124401 | 140014
12 | 31:06.65 | 4:34.29 | 140015 | 160593
13 | 35:41.19 | 3:10.43 | 160594 | 174886
14 | 38:51.62 | 7:18.28 | 174887 | 207764
15 | 46:10.15 | 2:26.00 | 207765 | 218714
16 | 48:36.15 | 3:20.73 | 218715 | 233787
17 | 51:57.13 | 2:32.10 | 233788 | 245197
18 | 54:29.23 | 5:52.05 | 245198 | 271602
19 | 60:21.28 | 0:38.29 | 271603 | 274481
20 | 60:59.57 | 3:21.67 | 274482 | 289623
21 | 64:21.49 | 0:36.20 | 289624 | 292343
22 | 64:57.69 | 2:33.26 | 292344 | 303844
23 | 67:31.20 | 2:46.69 | 303845 | 316363

Трек 1

Имя файла C:\Users\toshiba\Downloads\RelizyZ11\Buttia - Poklonimosia (Arkhaichni koliadky ta schedrivky. Pisni. Tantsi) (2002) [FLAC]\01. Vstup.wav

Длина предзазора 0:00:02.00

Пиковый уровень 83.5 %
Скорость извлечения 1.0 X
Качество трека 100.0 %
CRC теста 9F680E39
CRC копии 9F680E39
Копирование... OK

Трек 2

Имя файла C:\Users\toshiba\Downloads\RelizyZ11\Buttia - Poklonimosia (Arkhaichni koliadky ta schedrivky. Pisni. Tantsi) (2002) [FLAC]\02. Chi vdova vmode.wav

Пиковый уровень 93.6 %
Скорость извлечения 1.2 X
Качество трека 100.0 %
CRC теста 74AA9E5F
CRC копии 74AA9E5F
Копирование... OK

Трек 3

Имя файла C:\Users\toshiba\Downloads\RelizyZ11\Buttia - Poklonimosia (Arkhaichni koliadky ta schedrivky. Pisni. Tantsi) (2002) [FLAC]\03. Chi vdoma, vdoma nash pan-hazjain.wav

Пиковый уровень 100.0 %
Скорость извлечения 1.4 X
Качество трека 100.0 %
CRC теста 4D6899BA
CRC копии 4D6899BA
Копирование... OK

Трек 4

Имя файла C:\Users\toshiba\Downloads\RelizyZ11\Buttia - Poklonimosia (Arkhaichni koliadky ta schedrivky. Pisni. Tantsi) (2002) [FLAC]\04. Svjatij vechir dobrij vechir.wav

Пиковый уровень 100.0 %
Скорость извлечения 1.2 X
Качество трека 100.0 %
CRC теста 479C47B1
CRC копии 479C47B1
Копирование... OK

Трек 5

Имя файла C:\Users\toshiba\Downloads\RelizyZ11\Buttia - Poklonimosia (Arkhaichni koliadky ta schedrivky. Pisni. Tantsi) (2002) [FLAC]\05. Polka - nadobridenj.wav

Пиковый уровень 100.0 %
Скорость извлечения 1.4 X
Качество трека 100.0 %
CRC теста 336FCDBF
CRC копии 336FCDBF
Копирование... OK

Трек 6

Имя файла C:\Users\toshiba\Downloads\RelizyZ11\Buttia - Poklonimosia (Arkhaichni koliadky ta schedrivky. Pisni. Tantsi) (2002) [FLAC]\06. Dobrij vecher ljudji.wav

Пиковый уровень 98.0 %
Скорость извлечения 0.7 X
Качество трека 99.8 %
CRC теста 0638CBD3
CRC копии 0638CBD3
Копирование... OK

Трек 7

Имя файла C:\Users\toshiba\Downloads\RelizyZ11\Buttia - Poklonimosia (Arkhaichni koliadky ta schedrivky. Pisni. Tantsi) (2002) [FLAC]\07. Oij rano, rano kuri popeli.wav

Пиковый уровень 100.0 %
Скорость извлечения 1.4 X
Качество трека 100.0 %
CRC теста DCAAD7EC
CRC копии DCAAD7EC
Копирование... OK

Трек 8

Имя файла C:\Users\toshiba\Downloads\RelizyZ11\Buttia - Poklonimosia (Arkhaichni koliadky ta schedrivky. Pisni. Tantsi) (2002) [FLAC]\08. Oij z-za gaju zelenogo.wav

Пиковый уровень 100.0 %
Скорость извлечения 1.6 X
Качество трека 100.0 %
CRC теста BEB87790
CRC копии BEB87790
Копирование... OK

Трек 9

Имя файла C:\Users\toshiba\Downloads\RelizyZ11\Buttia - Poklonimosia (Arkhaichni koliadky ta schedrivky. Pisni. Tantsi) (2002) [FLAC]\09. Polka.wav

Пиковый уровень 88.3 %
Скорость извлечения 0.8 X
Качество трека 99.8 %
CRC теста 081DA392
CRC копии 081DA392
Копирование... OK

Трек 10

Имя файла C:\Users\toshiba\Downloads\RelizyZ11\Buttia - Poklonimosia (Arkhaichni koliadky ta schedrivky. Pisni. Tantsi) (2002) [FLAC]\10. Oij z-za gir z-za gir.wav

Пиковый уровень 89.6 %
Скорость извлечения 1.4 X
Качество трека 99.9 %
CRC теста A89AE75B
CRC копии A89AE75B
Копирование... OK

Трек 11

Имя файла C:\Users\toshiba\Downloads\RelizyZ11\Buttia - Poklonimosia (Arkhaichni koliadky ta schedrivky. Pisni. Tantsi) (2002) [FLAC]\11. Oij od Kieva do sela.wav

Пиковый уровень 95.2 %
Скорость извлечения 1.8 X
Качество трека 100.0 %
CRC теста 34D2E06C
CRC копии 34D2E06C
Копирование... OK

Трек 12

Имя файла C:\Users\toshiba\Downloads\RelizyZ11\Buttia - Poklonimosia (Arkhaichni koliadky ta schedrivky. Pisni. Tantsi) (2002) [FLAC]\12. Katerina.wav

Пиковый уровень 100.0 %
Скорость извлечения 1.9 X
Качество трека 100.0 %
CRC теста 6D9DFC96
CRC копии 6D9DFC96
Копирование... OK

Трек 13

Имя файла C:\Users\toshiba\Downloads\RelizyZ11\Buttia - Poklonimosia (Arkhaichni koliadky ta schedrivky. Pisni. Tantsi) (2002) [FLAC]\13. Bez tuchi, bez gromu.wav

Пиковый уровень 99.2 %
Скорость извлечения 1.3 X
Качество трека 99.9 %
CRC теста 35B262E6
CRC копии 35B262E6
Копирование... OK

Трек 14

Имя файла C:\Users\toshiba\Downloads\RelizyZ11\Buttia - Poklonimosia (Arkhaichni koliadky ta schedrivky. Pisni. Tantsi) (2002) [FLAC]\14. Tihi vodi berezhechki znosjat.wav

Пиковый уровень 96.7 %
Скорость извлечения 2.2 X
Качество трека 100.0 %
CRC теста 86C4C5C5
CRC копии 86C4C5C5
Копирование... OK

Трек 15

Имя файла C:\Users\toshiba\Downloads\RelizyZ11\Buttia - Poklonimosia (Arkhaichni koliadky ta schedrivky. Pisni. Tantsi) (2002) [FLAC]\15. Oij na gori gori.wav

Пиковый уровень 95.6 %
Скорость извлечения 2.0 X
Качество трека 100.0 %
CRC теста A1EE874E
CRC копии A1EE874E
Копирование... OK

Трек 16

Имя файла C:\Users\toshiba\Downloads\RelizyZ11\Buttia - Poklonimosia (Arkhaichni koliadky ta schedrivky. Pisni. Tantsi) (2002) [FLAC]\16. Perelaz.wav

Пиковый уровень 89.6 %
Скорость извлечения 2.1 X
Качество трека 100.0 %
CRC теста 45ADA25A
CRC копии 45ADA25A
Копирование... OK

Трек 17

Имя файла C:\Users\toshiba\Downloads\RelizyZ11\Buttia - Poklonimosia (Arkhaichni koliadky ta schedrivky. Pisni. Tantsi) (2002) [FLAC]\17. Oij na lesom lesom.wav

Пиковый уровень 84.5 %
Скорость извлечения 1.9 X
Качество трека 100.0 %
CRC теста AE4C7425
CRC копии AE4C7425
Копирование... OK

Трек 18

Имя файла C:\Users\toshiba\Downloads\RelizyZ11\Buttia - Poklonimosia (Arkhaichni koliadky ta schedrivky. Pisni. Tantsi) (2002) [FLAC]\18. Oi ti nash pane, pane Ivane.wav

Пиковый уровень 91.3 %
Скорость извлечения 2.4 X
Качество трека 100.0 %
CRC теста 852B7BC5
CRC копии 852B7BC5
Копирование... OK

Трек 19

Имя файла C:\Users\toshiba\Downloads\RelizyZ11\Buttia - Poklonimosia (Arkhaichni koliadky ta schedrivky. Pisni. Tantsi) (2002) [FLAC]\19. Shcedrij vechir.wav

Длина предзазора 0:00:00.01

Пиковый уровень 91.8 %
Скорость извлечения 1.3 X
Качество трека 100.0 %
CRC теста B6267B20
CRC копии B6267B20
Копирование... OK

Трек 20

Имя файла C:\Users\toshiba\Downloads\RelizyZ11\Buttia - Poklonimosia (Arkhaichni koliadky ta schedrivky. Pisni. Tantsi) (2002) [FLAC]\20. Shco uchora izvechora.wav

Пиковый уровень 92.5 %
Скорость извлечения 2.3 X
Качество трека 100.0 %
CRC теста 2B9AA249
CRC копии 2B9AA249
Копирование... OK

Трек 21

Имя файла C:\Users\toshiba\Downloads\RelizyZ11\Buttia - Poklonimosia (Arkhaichni koliadky ta schedrivky. Pisni. Tantsi) (2002) [FLAC]\21. Oij v djadjka v djadjka.wav

Пиковый уровень 97.0 %
Скорость извлечения 1.3 X
Качество трека 100.0 %
CRC теста 0ABEC044
CRC копии 0ABEC044
Копирование... OK

Трек 22

Имя файла C:\Users\toshiba\Downloads\RelizyZ11\Buttia - Poklonimosia (Arkhaichni koliadky ta schedrivky. Pisni. Tantsi) (2002) [FLAC]\22. Pcholinaja matjka z ditkami ide.wav

Пиковый уровень 95.4 %
Скорость извлечения 1.2 X
Качество трека 99.9 %
CRC теста 41A7C7D9
CRC копии 41A7C7D9
Копирование... OK

Трек 23

Имя файла C:\Users\toshiba\Downloads\RelizyZ11\Buttia - Poklonimosia (Arkhaichni koliadky ta schedrivky. Pisni. Tantsi) (2002) [FLAC]\23. Poklonimsja cjomu sudarju.wav

Пиковый уровень 91.8 %
Скорость извлечения 2.2 X
Качество трека 100.0 %
CRC теста F7C12A4F
CRC копии F7C12A4F
Копирование... OK

Ошибок не произошло

Конец отчёта

---- CUETools DB Plugin V2.1.3

[CTDB TOCID: 7_w8MSLBKVuYu4XLxbxSLISEeJE-] disk not present in database, Submit result: 7_w8MSLBKVuYu4XLxbxSLISEeJE- has been uploaded

Exact Audio Copy V1.0 beta 3 from 29. August 2011

Отчёт EAC об извлечении, выполненном 3. апреля 2013, 22:04

Buttia / Poklonimosia

Дисковод: TSSTcorpCDDVDW TS-L633A Adapter: 0 ID: 1

Режим чтения : Достоверность
Использование точного потока : Да
Отключение кэша аудио : Да
Использование указателей C2 : Нет

Коррекция смещения при чтении : 6
Способность читать области Lead-in и Lead-out : Нет
Заполнение пропущенных сэмплов тишиной : Да
Удаление блоков с тишиной в начале и конце : Нет
При вычислениях CRC использовались нулевые сэмплы : Да
Интерфейс : Встроенный Win32-интерфейс для Win NT/2000

Выходной формат : Внутренние WAV-операции
Формат сэмплов : 44.100 Гц; 16 бит; стерео

TOC извлечённого CD

Трек | Старт | Длительность | Начальный сектор | Конечный сектор
---------------------------------------------------------------------
1 | 0:00.00 | 1:43.56 | 0 | 7780
2 | 1:43.56 | 3:32.41 | 7781 | 23721
3 | 5:16.22 | 5:35.35 | 23722 | 48881
4 | 10:51.57 | 1:28.29 | 48882 | 55510
5 | 12:20.11 | 2:36.13 | 55511 | 67223
6 | 14:56.24 | 1:18.28 | 67224 | 73101
7 | 16:14.52 | 2:40.28 | 73102 | 85129
8 | 18:55.05 | 3:12.54 | 85130 | 99583
9 | 22:07.59 | 1:40.45 | 99584 | 107128
10 | 23:48.29 | 3:50.22 | 107129 | 124400
11 | 27:38.51 | 3:28.14 | 124401 | 140014
12 | 31:06.65 | 4:34.29 | 140015 | 160593
13 | 35:41.19 | 3:10.43 | 160594 | 174886
14 | 38:51.62 | 7:18.28 | 174887 | 207764
15 | 46:10.15 | 2:26.00 | 207765 | 218714
16 | 48:36.15 | 3:20.73 | 218715 | 233787
17 | 51:57.13 | 2:32.10 | 233788 | 245197
18 | 54:29.23 | 5:52.05 | 245198 | 271602
19 | 60:21.28 | 0:38.29 | 271603 | 274481
20 | 60:59.57 | 3:21.67 | 274482 | 289623
21 | 64:21.49 | 0:36.20 | 289624 | 292343
22 | 64:57.69 | 2:33.26 | 292344 | 303844
23 | 67:31.20 | 2:46.69 | 303845 | 316363

Характеристики диапазона извлечения и сообщения об ошибках

Выбранный диапазон

Имя файла C:\Users\toshiba\Downloads\RelizyZ11\Buttia - Poklonimosia (Arkhaichni koliadky ta schedrivky. Pisni. Tantsi) (2002) [FLAC]\Buttia - Poklonimosia.wav

Пиковый уровень 100.0 %
Скорость извлечения 3.9 X
Качество диапазона 100.0 %
CRC копии 806BEC58
Копирование... OK

Ошибок не произошло

AccurateRip: сводка

Трек 1 отсутствует в базе данных
Трек 2 отсутствует в базе данных
Трек 3 отсутствует в базе данных
Трек 4 отсутствует в базе данных
Трек 5 отсутствует в базе данных
Трек 6 отсутствует в базе данных
Трек 7 отсутствует в базе данных
Трек 8 отсутствует в базе данных
Трек 9 отсутствует в базе данных
Трек 10 отсутствует в базе данных
Трек 11 отсутствует в базе данных
Трек 12 отсутствует в базе данных
Трек 13 отсутствует в базе данных
Трек 14 отсутствует в базе данных
Трек 15 отсутствует в базе данных
Трек 16 отсутствует в базе данных
Трек 17 отсутствует в базе данных
Трек 18 отсутствует в базе данных
Трек 19 отсутствует в базе данных
Трек 20 отсутствует в базе данных
Трек 21 отсутствует в базе данных
Трек 22 отсутствует в базе данных
Трек 23 отсутствует в базе данных

Ни одного трека нет в базе AccurateRip

Конец отчёта

---- CUETools DB Plugin V2.1.3

[CTDB TOCID: 7_w8MSLBKVuYu4XLxbxSLISEeJE-] found, Submit result: already submitted
[f4684daa] (1/1) Accurately ripped
Тривалість: 01:10:18
Мова: українська (1-4, 6-8, 10-23), інструментальні композиції (5, 9)
Аудіо-кодек: FLAC
Бітрейт: 684 кб/с
Джерело: власний ріп з диску
Тип ріпу: image + cue + обкладинки

Додаткова інформація:
Цей аудіоальбом складається переважно з колядок і щедрівок, записаних учасниками ансамблю на Поліссі, Поділліі, Подніпров'ї. На Поліссі до сьогодні збереглися різноманітні зимові святкові пісні. Основу нашого зимового репертуару складають саме поліські колядки та щедрівки з архаїчними видами баготоголосся бурдонового і гетерофонного типу. Але й там, де зимовий обряд зберігся гірше, зустрічаються міні-шедеври усної творчості.

Найстаріші колядки філософського і світотворчого змісту. Проте, більшість колядок і щедрівок є привітанням кожному, хто знаходиться в хаті. Це колядки господарю господині, хлопцю, дядьку добрим людям, бджолам. Інколи колядували з музичними інструментами, супроводжуючи ними спів або танці. У цьому аудіоальбомі ви почуєте скрипку, скрипку-втору (грає ритм подвійними нотами переважно на непритиснених струнах і в першій позиції), поліську сопілку, бубен та бухало (барабан із закріпленою тарілкою). Традиційно колядників запрошують до хати, садовлять за стіл і наливають чарку. У таких випадках співають ліричних пісень. Завершувальним акордом дійства могла бути величальна колядка, сполучена з "многими літами".


Увага! Торрент-файл оновлено 03.04.13!


Срібний реліз (на рейтинг впливає 50% завантаженого)
 Трекер:    Зареєстрований   

Завантажити / скачати українську музику



відео для новачків



 Зареєстрований:   2013-04-03 22:02
 Розмір:   347 MB 
 Оцінка музики:   10/10 (Голосів: 4)
   
Anonymous 







2013-03-21 23:24  
Зізнаюся, ssTAss мав рацію щодо диску. Він був у базі, тож мені навіть не довелося працювати над назвами треків. А на вигляд звичайнісінький "пан сам склєпав".
"Не золото – все, що сяє,
Не всі, хто блукає, – блуднí..." (с)

Ваш часовий пояс: GMT + 2 Години

Нова тема   Відповісти