Завантажити та скачати торренти українською


Дзідзьо - ХА-ХА-ХА (2012) [FLAC] | Pop / Hip-hop-dance

Нові коментарі

Нова тема   Відповісти
Автор Повідомлення
fanDYNAMO 
Частий відвідувач


З нами з: 30.12.12
Востаннє: 05.12.16
Повідомлень: 38

2013-03-21 20:27  
Дзідзьо - ХА-ХА-ХА (2012) [FLAC] | Pop / Hip-hop-dance

Дзідзьо - ХА-ХА-ХА (2012) [FLAC] | Pop / Hip-hop-dance


Стиль: Pop Hip-Hop
Країна, місто: Україна, Київ
Сайти: Офіційний сайт
Видавець: Meison Entertaiment LLC

Виконавці:
Михайло Хома - вокал
Лесик Турко - гітара, бек-вокал
Юлік - клавіші, бек-вокал

Пісні:
    01. Ая-Ая (02:49)
    02. Ялта (03:01)
    03. Сама-сама (02:47)
    04. Гопа-гопа (03:14)
    05. Кобіта (02:15)
    06. Каділак (02:54)
    07. Буську (02:58)
    08. Ja cie kocham (02:42)
    09. Голі дівчата (02:44)
    10. Серенада (02:40)
    11. Das ist gut fantastish (02:54)
    12. ХА-ХА-ХА (02:40)
    13. Старі фотогорафіі (03:36)
    14. Ja cie kocham (live) (03:01)

Тривалість: 00:40:20
Мова: українська
Аудіо-кодек: FLAC
Бітрейт: ~ 1028 кб/с
Джерело: Rip з сусідського CD
Додаткова інформація:
Мегапопулярний гурт DZIDZIO випустив свій дебютний драйвовий CD-альбом під назвою «ХА-ХА-ХА»

Нарешті ми дочекалися! Мегапопулярний гурт DZIDZIO, що відомий своїми запальними композиціями «Ялта», «Каділак» та «Ja cie kocham» випустив свій дебютний драйвовий CD-альбом з позитивною назвою «ХА-ХА-ХА», реліз якого відбувся 20 листопада 2012 року, в День народження фронтмена гурту Дзідзя!
До дебютного альбому ввійшло 14 треків, серед яких нова довгоочікувана пісня «А я – а я», а також вже добре відомі і улюблені пісні!

Ріп ідеальний, усі треки програються нормально, ніяких багів нема!

Якщо Ви справді бажаєте підтримати українське - після прослуховування, якщо музика вам сподобалась, придбайте ліцензійний диск. Підтримаймо вітчизняних виконавців!
Звіт EAC:
Exact Audio Copy V1.0 beta 3 from 29. August 2011

Отчёт EAC об извлечении, выполненном 9. декабря 2012, 2:03

DZIDZIO / ХА-ХА-ХА

Дисковод: SlimtypeDVD A DS8A5SH Adapter: 0 ID: 1

Режим чтения : Достоверность
Использование точного потока : Да
Отключение кэша аудио : Да
Использование указателей C2 : Нет

Коррекция смещения при чтении : 6
Способность читать области Lead-in и Lead-out : Нет
Заполнение пропущенных сэмплов тишиной : Да
Удаление блоков с тишиной в начале и конце : Нет
При вычислениях CRC использовались нулевые сэмплы : Да
Интерфейс : Встроенный Win32-интерфейс для Win NT/2000

Выходной формат : Пользовательский кодировщик
Выбранный битрейт : 1024 kBit/s
Качество : Высокий
Добавление ID3-тега : Нет
Утилита сжатия : D:\ПРОГРАММЫ\flac-1.2.1b\flac-1.2.1b.exe
Дополнительные параметры : -V -8 -T "Date=%year%" -T "Genre=%genre%" %source%

TOC извлечённого CD

Трек | Старт | Длительность | Начальный сектор | Конечный сектор
---------------------------------------------------------------------
1 | 0:00.00 | 2:49.21 | 0 | 12695
2 | 2:49.21 | 3:01.07 | 12696 | 26277
3 | 5:50.28 | 2:47.36 | 26278 | 38838
4 | 8:37.64 | 3:14.25 | 38839 | 53413
5 | 11:52.14 | 2:15.16 | 53414 | 63554
6 | 14:07.30 | 2:54.40 | 63555 | 76644
7 | 17:01.70 | 2:58.52 | 76645 | 90046
8 | 20:00.47 | 2:42.23 | 90047 | 102219
9 | 22:42.70 | 2:44.38 | 102220 | 114557
10 | 25:27.33 | 2:40.52 | 114558 | 126609
11 | 28:08.10 | 2:54.10 | 126610 | 139669
12 | 31:02.20 | 2:40.05 | 139670 | 151674
13 | 33:42.25 | 3:36.38 | 151675 | 167912
14 | 37:18.63 | 3:01.60 | 167913 | 181547
15 | 42:52.48 | 32:33.13 | 192948 | 339435

Характеристики диапазона извлечения и сообщения об ошибках

Выбранный диапазон

Имя файла D:\TORRENT\DZIDZIO - ХА-ХА-ХА [2012] [LOSSLESS]\DZIDZIO - ХА-ХА-ХА [2012] [LOSSLESS].wav

Пиковый уровень 100.0 %
Скорость извлечения 3.0 X
Качество диапазона 99.9 %
CRC теста EA326624
CRC копии EA326624
Копирование... OK

Ошибок не произошло

Конец отчёта

==== Контрольная сумма отчёта 5BDD27BEBE113696B84CD33C16609C019983D7D58EA6BB5051A260FE55E8B513 ====
Індексна катра (.CUE):
REM GENRE Pop
REM DATE 2012
REM DISCID B411AD0F
REM COMMENT "ExactAudioCopy v1.0b3"
PERFORMER "DZIDZIO"
TITLE "ХА-ХА-ХА"
FILE "DZIDZIO - ХА-ХА-ХА [2012] [LOSSLESS].flac" WAVE
TRACK 01 AUDIO
TITLE "А Я - А Я"
PERFORMER "DZIDZIO"
INDEX 01 00:00:00
TRACK 02 AUDIO
TITLE "ЯЛТА"
PERFORMER "DZIDZIO"
INDEX 01 02:49:21
TRACK 03 AUDIO
TITLE "САМА-САМА"
PERFORMER "DZIDZIO"
INDEX 01 05:50:28
TRACK 04 AUDIO
TITLE "ГОПА-ГОПА"
PERFORMER "DZIDZIO"
INDEX 01 08:37:64
TRACK 05 AUDIO
TITLE "КОБІТА"
PERFORMER "DZIDZIO"
INDEX 01 11:52:14
TRACK 06 AUDIO
TITLE "КАДІЛАК"
PERFORMER "DZIDZIO"
INDEX 01 14:07:30
TRACK 07 AUDIO
TITLE "БУСЬКУ"
PERFORMER "DZIDZIO"
INDEX 01 17:01:70
TRACK 08 AUDIO
TITLE "JA CIE KOCHAM"
PERFORMER "DZIDZIO"
INDEX 01 20:00:47
TRACK 09 AUDIO
TITLE "ГОЛІ ДІВЧАТА"
PERFORMER "DZIDZIO"
INDEX 01 22:42:70
TRACK 10 AUDIO
TITLE "СЕРЕНАДА"
PERFORMER "DZIDZIO"
INDEX 01 25:27:33
TRACK 11 AUDIO
TITLE "DAS IST GUT FANTASTISCH"
PERFORMER "DZIDZIO"
INDEX 01 28:08:10
TRACK 12 AUDIO
TITLE "ХА-ХА-ХА"
PERFORMER "DZIDZIO"
INDEX 01 31:02:20
TRACK 13 AUDIO
TITLE "СТАРІ ФОТОГРАФІЇ"
PERFORMER "DZIDZIO"
INDEX 01 33:42:25
TRACK 14 AUDIO
TITLE "JA CIE KOCHAM [LIVE]"
PERFORMER "DZIDZIO"
INDEX 01 37:18:63
Звіт auCDtect Task Manager:
-----------------------

DON'T MODIFY THIS FILE

-----------------------

PERFORMER: auCDtect Task Manager, ver. 1.5.1RC6 build 1.5.1.7
Copyright (c) 2008-2010 y-soft. All rights reserved
http://y-soft.org

ANALYZER: auCDtect: CD records authenticity detector, version 0.8.2
Copyright (c) 2004 Oleg Berngardt. All rights reserved.
Copyright (c) 2004 Alexander Djourik. All rights reserved.

FILE: Dzidzio - ХаХаХа (2012).flac
Size: 320672627 Hash: 22CFC983FABB97C9DE2AA4A538C0A791 Accuracy: -m0
Conclusion: CDDA 100%
Signature: A4085F28BBD21D711F1C16FED7E478DD9E4E83FE


Срібний реліз (на рейтинг впливає 50% завантаженого)
 Трекер:    Зареєстрований   

Завантажити / скачати українську музику



відео для новачків



 Зареєстрований:   2013-03-21 20:27
 Розмір:   310 MB 
 Оцінка музики:   9.3/10 (Голосів: 17)
   
ssTAss 
Модератор музики


З нами з: 05.07.08
Востаннє: 07.12.16
Повідомлень: 10947

2013-03-21 21:57  
на диску було відео.. не маєте можливості додати?
fanDYNAMO 
Частий відвідувач


З нами з: 30.12.12
Востаннє: 05.12.16
Повідомлень: 38

2013-03-21 22:00  
ssTAss
спитаю у друга, якшо в нього ще е CD, то обовьязково додам... Просто ріп робив ще в грудні

Localizator 
Модератор розділів Linux


З нами з: 07.01.11
Востаннє: 31.10.16
Повідомлень: 281

2013-03-21 22:18  
та вже давно є цей альбом на Гуртом:
http://toloka.to/t41719
http://toloka.to/t41712
нащо дубляжі робити ?

fanDYNAMO 
Частий відвідувач


З нами з: 30.12.12
Востаннє: 05.12.16
Повідомлень: 38

2013-03-22 01:09  
Localizator
Цитата:
є купа "циків", трек "Буську" взагалі рваний


В мене: Ріп ідеальний, усі треки програються нормально, ніяких багів нема!

fanDYNAMO 
Частий відвідувач


З нами з: 30.12.12
Востаннє: 05.12.16
Повідомлень: 38

2013-03-22 12:48  
ssTAss
що саме цікаве: на CD кліпів нема...хоча на обкладинці написано що е! Ось тримаю у руках CD

ssTAss 
Модератор музики


З нами з: 05.07.08
Востаннє: 07.12.16
Повідомлень: 10947

2013-03-22 15:57  
fanDYNAMO написано:
15 | 42:52.48 | 32:33.13 | 192948 | 339435

???
приховане?
або не той тоді диск ріпали

Додано через 5 хвилин 5 секунд:

fanDYNAMO написано:

14 | 37:18.63 | 3:01.60 | 167913 | 181547
15 | 42:52.48 | 32:33.13 | 192948 | 339435

а взагалі якась дивна ситуація
15 трек (тобто, ті кліпи) мав би починатись на 40:20.23 (37:18.63 + тривалість 14 треку 3:01.60), а він чогось аж на 2 з гаком секунди пізніше
та й тривалість 4-ох кліпів дуже довга - 32 з половиною хвилини
хм... дивно, дивно
звідки ЕАС тоді взяв той 15 трек?

fanDYNAMO 
Частий відвідувач


З нами з: 30.12.12
Востаннє: 05.12.16
Повідомлень: 38

2013-03-23 00:43  
ssTAss
нічого не можу сказати так як ріпав диск сам, лог не модифікований... диск той же, можу зробити ріп ще раз...

ssTAss 
Модератор музики


З нами з: 05.07.08
Востаннє: 07.12.16
Повідомлень: 10947

2013-03-23 02:11  
fanDYNAMO написано:
на CD кліпів нема.

відкрийте в тоталі командері і поставте галочку "показати приховані файли"
якщо вже і так не покаже, то не знаю, як ЕАС побачив

fanDYNAMO 
Частий відвідувач


З нами з: 30.12.12
Востаннє: 05.12.16
Повідомлень: 38

2013-03-23 12:21  
ssTAss
та робив я так Happy я досвідченний юзер, 7 років сісадміном працюю, відразу подумав що може скриті треки є....але нажаль нема нічого. Зараз знов робив ріп - EAC бачить 15 треків... може було так при штамповці прописано, але кліпи не додали а інфо залишилось...

ssTAss 
Модератор музики


З нами з: 05.07.08
Востаннє: 07.12.16
Повідомлень: 10947

2013-03-23 13:18  
значить пороблено Rolleyes (2)
в такому випадку допоможе тільки бубен Wide grin

fanDYNAMO 
Частий відвідувач


З нами з: 30.12.12
Востаннє: 05.12.16
Повідомлень: 38

2013-03-23 18:09  
ssTAss
починаю танцювати Wide grin

ruzao 
Новенький


З нами з: 13.05.08
Востаннє: 11.03.15
Повідомлень: 1

2013-12-26 13:27  
Станьте будь ласка на роздачу
kino. 
Модератор відео


З нами з: 27.06.10
Востаннє: 07.12.16
Повідомлень: 2900

2013-12-26 17:01  
ruzao написано:
Станьте будь ласка на роздачу

Ваш рейтинг опустився нижче 0,15. Коли він підніметься до цього рівня, ви знову зможете завантажувати торрент-файли. Почитайте ЦЕ

ne4ip0renk0 
Новенький


З нами з: 27.11.12
Востаннє: 19.02.15
Повідомлень: 1

2014-04-05 17:26  
Це мій ріп, який я викладував на Рутрекер. Зроблений він з оригінального CD. Що до кліпів, то на диску їх 4 штуки, пізніше можу викласти. Я не проти, що мою роздачу тут виклали, але нащо присвоювати собі ріп?
Ваш часовий пояс: GMT + 2 Години

Нова тема   Відповісти