Завантажити та скачати торренти українською


The Britalin - Season 1 (2010) [FLAC] | Pop Rock / Britpop

Нові коментарі

Нова тема   Відповісти
Останній раз роздавалося Myfordownloads (2016-10-09)
Автор Повідомлення
muhomor 
VIP


З нами з: 04.12.11
Востаннє: 29.11.16
Повідомлень: 297

2013-03-21 00:51  
The Britalin - Season 1 (2010) [FLAC] | Pop Rock / Britpop

The Britalin - Season 1 (2010) [FLAC] | Pop Rock / Britpop


Стиль: Pop Rock / Britpop
Країна, місто: Україна, Київ
Сайти: myspace
Видавець: MOON Records
Виконавці:
Катерина Юрчук - вокал, фортепіяно, бек-вокал
Юрій Строкань - вокал, бек-вокал
Сергій Горай - бас-гітара
Максим Малишев - барабани, перкусія
Юрій Смаліус - гітара, клавіші, бек-вокал
Дарья Сєдова, Валентина Буграк, Марія Бродовая, Віроніка Черняк - струнний квартет
Пісні:
    01. Всі За...
    02. Справжнє
    03. Там, Де Ти
    04. Перевантаження
    05. Переходи Границы
    06. Ладони
    07. Anime
    08. Крок Назад
    09. Наші Діти
    10. Медленное Солнце
    11. Серце
    12. Песня Про Безопасного (bonus track)
    Audiochecker


    AUDIOCHECKER v2.0 beta (build 457) - by Dester - [email protected]
    ~~~~~~~~~~~~~~~~~~~~~~~~~~~~~~~~~~

    Started at: четверг, 21. 03. 2013. - 0:43.56
    12 files found

    01 -===- D:\hurtom.com\The Britalin - «Season 1» (2010) (FLAC)\01 The Britalin Всі За....flac
    Extracted successfully
    Conclusion: this track is CDDA with probability 99%
    Tempfile successfully deleted.

    02 -===- D:\hurtom.com\The Britalin - «Season 1» (2010) (FLAC)\02 The Britalin Справжнє.flac
    Extracted successfully
    Conclusion: this track is CDDA with probability 100%
    Tempfile successfully deleted.

    03 -===- D:\hurtom.com\The Britalin - «Season 1» (2010) (FLAC)\03 The Britalin Там, Де Ти.flac
    Extracted successfully
    Conclusion: this track is CDDA with probability 99%
    Tempfile successfully deleted.

    04 -===- D:\hurtom.com\The Britalin - «Season 1» (2010) (FLAC)\04 The Britalin Перевантаження.flac
    Extracted successfully
    Conclusion: this track is CDDA with probability 100%
    Tempfile successfully deleted.

    05 -===- D:\hurtom.com\The Britalin - «Season 1» (2010) (FLAC)\05 The Britalin Переходи Границы.flac
    Extracted successfully
    Conclusion: this track is CDDA with probability 100%
    Tempfile successfully deleted.

    06 -===- D:\hurtom.com\The Britalin - «Season 1» (2010) (FLAC)\06 The Britalin Ладони.flac
    Extracted successfully
    Conclusion: this track is CDDA with probability 100%
    Tempfile successfully deleted.

    07 -===- D:\hurtom.com\The Britalin - «Season 1» (2010) (FLAC)\07 The Britalin Anime.flac
    Extracted successfully
    Conclusion: this track is CDDA with probability 100%
    Tempfile successfully deleted.

    08 -===- D:\hurtom.com\The Britalin - «Season 1» (2010) (FLAC)\08 The Britalin Крок Назад.flac
    Extracted successfully
    Conclusion: this track is CDDA with probability 100%
    Tempfile successfully deleted.

    09 -===- D:\hurtom.com\The Britalin - «Season 1» (2010) (FLAC)\09 The Britalin Наші Діти.flac
    Extracted successfully
    Conclusion: this track is CDDA with probability 100%
    Tempfile successfully deleted.

    10 -===- D:\hurtom.com\The Britalin - «Season 1» (2010) (FLAC)\10 The Britalin Медленное Солнце.flac
    Extracted successfully
    Conclusion: this track is CDDA with probability 100%
    Tempfile successfully deleted.

    11 -===- D:\hurtom.com\The Britalin - «Season 1» (2010) (FLAC)\11 The Britalin Серце.flac
    Extracted successfully
    Conclusion: this track is CDDA with probability 100%
    Tempfile successfully deleted.

    12 -===- D:\hurtom.com\The Britalin - «Season 1» (2010) (FLAC)\12 The Britalin Песня Про Безопасного (bonus track).flac
    Extracted successfully
    Conclusion: this track is CDDA with probability 100%
    Tempfile successfully deleted.

    Finished at: четверг, 21. 03. 2013. - 0:48.02 (operation time: 0:04.05)
    Log


    Exact Audio Copy V1.0 beta 3 from 29. August 2011

    Отчёт EAC об извлечении, выполненном 21. марта 2013, 0:13

    The Britalin / Season 1

    Дисковод: ASUS DRW-2014S1T Adapter: 2 ID: 8

    Режим чтения : Достоверность
    Использование точного потока : Да
    Отключение кэша аудио : Да
    Использование указателей C2 : Нет

    Коррекция смещения при чтении : 6
    Способность читать области Lead-in и Lead-out : Нет
    Заполнение пропущенных сэмплов тишиной : Да
    Удаление блоков с тишиной в начале и конце : Нет
    При вычислениях CRC использовались нулевые сэмплы : Да
    Интерфейс : Встроенный Win32-интерфейс для Win NT/2000
    Обработка зазоров : Не обнаружено, добавлено к предыдущему треку

    Выходной формат : Пользовательский кодировщик
    Выбранный битрейт : 128 kBit/s
    Качество : Высокий
    Добавление ID3-тега : Нет
    Утилита сжатия : C:\Program Files\Exact Audio Copy\Flac\flac.exe
    Дополнительные параметры : -V -8 -T "Genre=%genre%" -T "Artist=%artist%" -T "Title=%title%" -T "Album=%albumtitle%" -T "Date=%year%" -T "Tracknumber=%tracknr%" -T "Comment=%comment%" %source%

    TOC извлечённого CD

    Трек | Старт | Длительность | Начальный сектор | Конечный сектор
    ---------------------------------------------------------------------
    1 | 0:00.00 | 4:10.53 | 0 | 18802
    2 | 4:10.53 | 4:05.53 | 18803 | 37230
    3 | 8:16.31 | 4:03.34 | 37231 | 55489
    4 | 12:19.65 | 4:06.44 | 55490 | 73983
    5 | 16:26.34 | 3:34.59 | 73984 | 90092
    6 | 20:01.18 | 4:04.22 | 90093 | 108414
    7 | 24:05.40 | 4:40.69 | 108415 | 129483
    8 | 28:46.34 | 4:05.19 | 129484 | 147877
    9 | 32:51.53 | 3:53.35 | 147878 | 165387
    10 | 36:45.13 | 4:19.43 | 165388 | 184855
    11 | 41:04.56 | 3:40.43 | 184856 | 201398
    12 | 44:45.24 | 4:10.59 | 201399 | 220207

    Трек 1

    Имя файла D:\Documents and Settings\user\Рабочий стол\«»—0–\01 The Britalin Всі За....wav

    Пиковый уровень 98.8 %
    Скорость извлечения 5.0 X
    Качество трека 100.0 %
    CRC теста 4AB514B1
    CRC копии 4AB514B1
    Копирование... OK

    Трек 2

    Имя файла D:\Documents and Settings\user\Рабочий стол\«»—0–\02 The Britalin Справжнє.wav

    Пиковый уровень 98.8 %
    Скорость извлечения 5.5 X
    Качество трека 100.0 %
    CRC теста D934F0F9
    CRC копии D934F0F9
    Копирование... OK

    Трек 3

    Имя файла D:\Documents and Settings\user\Рабочий стол\«»—0–\03 The Britalin Там, Де Ти.wav

    Пиковый уровень 98.8 %
    Скорость извлечения 5.9 X
    Качество трека 100.0 %
    CRC теста E1C79E86
    CRC копии E1C79E86
    Копирование... OK

    Трек 4

    Имя файла D:\Documents and Settings\user\Рабочий стол\«»—0–\04 The Britalin Перевантаження.wav

    Пиковый уровень 98.8 %
    Скорость извлечения 6.3 X
    Качество трека 100.0 %
    CRC теста D9E52C99
    CRC копии D9E52C99
    Копирование... OK

    Трек 5

    Имя файла D:\Documents and Settings\user\Рабочий стол\«»—0–\05 The Britalin Переходи Границы.wav

    Пиковый уровень 98.8 %
    Скорость извлечения 5.8 X
    Качество трека 99.9 %
    CRC теста 95B35DEC
    CRC копии 95B35DEC
    Копирование... OK

    Трек 6

    Имя файла D:\Documents and Settings\user\Рабочий стол\«»—0–\06 The Britalin Ладони.wav

    Пиковый уровень 98.8 %
    Скорость извлечения 7.1 X
    Качество трека 100.0 %
    CRC теста 8D5986C7
    CRC копии 8D5986C7
    Копирование... OK

    Трек 7

    Имя файла D:\Documents and Settings\user\Рабочий стол\«»—0–\07 The Britalin Anime.wav

    Пиковый уровень 98.8 %
    Скорость извлечения 7.6 X
    Качество трека 100.0 %
    CRC теста 76CBF95E
    CRC копии 76CBF95E
    Копирование... OK

    Трек 8

    Имя файла D:\Documents and Settings\user\Рабочий стол\«»—0–\08 The Britalin Крок Назад.wav

    Пиковый уровень 98.8 %
    Скорость извлечения 7.9 X
    Качество трека 100.0 %
    CRC теста 78AB19A3
    CRC копии 78AB19A3
    Копирование... OK

    Трек 9

    Имя файла D:\Documents and Settings\user\Рабочий стол\«»—0–\09 The Britalin Наші Діти.wav

    Пиковый уровень 98.8 %
    Скорость извлечения 7.9 X
    Качество трека 100.0 %
    CRC теста 781A536D
    CRC копии 781A536D
    Копирование... OK

    Трек 10

    Имя файла D:\Documents and Settings\user\Рабочий стол\«»—0–\10 The Britalin Медленное Солнце.wav

    Пиковый уровень 98.8 %
    Скорость извлечения 7.0 X
    Качество трека 99.9 %
    CRC теста C5576179
    CRC копии C5576179
    Копирование... OK

    Трек 11

    Имя файла D:\Documents and Settings\user\Рабочий стол\«»—0–\11 The Britalin Серце.wav

    Пиковый уровень 98.8 %
    Скорость извлечения 8.4 X
    Качество трека 100.0 %
    CRC теста 59131995
    CRC копии 59131995
    Копирование... OK

    Трек 12

    Имя файла D:\Documents and Settings\user\Рабочий стол\«»—0–\12 The Britalin Песня Про Безопасного (bonus track).wav

    Пиковый уровень 97.7 %
    Скорость извлечения 9.0 X
    Качество трека 100.0 %
    CRC теста 9C19D59A
    CRC копии 9C19D59A
    Копирование... OK

    Ошибок не произошло

    Конец отчёта

    ==== Контрольная сумма отчёта F9D40AE77787CC481876704A0D25638F64BF4A430A002C166ADBD041CDDF0934 ====

Тривалість: 00:48:49
Мова: українська (1-4, 7-9, 11), російська (5, 6, 10, 12)
Аудіо-кодек: FLAC
Бітрейт: 988 кб/с
Джерело: ріп із власного CD


Срібний реліз (на рейтинг впливає 50% завантаженого)
 Трекер:    Зареєстрований   

Завантажити / скачати українську музику



відео для новачків



 Зареєстрований:   2013-03-21 00:51
 Розмір:   346 MB 
 Оцінка музики:   7.8/10 (Голосів: 4)
   
Ваш часовий пояс: GMT + 2 Години

Нова тема   Відповісти