Завантажити та скачати торренти українською


Паралельні світи / Upside Down (2012) 720p Ukr/Eng | sub Eng

Нові коментарі

Нова тема   Відповісти
Автор Повідомлення
DеLight 
Відео Гуртом - фільмокрай
Відео Гуртом - фільмокрай


З нами з: 24.08.11
Востаннє: 17.11.16
Повідомлень: 664

2013-03-20 22:36  
Паралельні світи / Upside Down (2012) 720p Ukr/Eng | sub Eng

Паралельні світи / Upside Down (2012) 720p Ukr/Eng | sub Eng

«Впасти, аби злетіти»


Альтернативний постер




Жанр: драма, фентезі, романтичний
Країна: Канада, Франція



Кіностудія / кінокомпанія: Jouror Productions, Onyx Films, Studio 37, Transfilm
Режисер: Хуан Соланас / Juan Solanas
Актори: Кірстен Данст / Kirsten Dunst, Джим Стерджесс / Jim Sturgess, Тімоті Сполл / Timothy Spall, Ніл Нап’єр / Neil Napier, Jayne Heitmeyer / Джейн Гейтмейер, Джеймс Кідні / James Kidnie, Ларрі Дей / Larry Day та інші

Сюжет:
Закохані Адам і Еден живуть у різних світах з дивними фізичними і ще більш дивними юридичними законами. Їх світи розташовані один навпроти одного, люди одного світу живуть буквально догори дригом над жителями іншого. Верхній світ для багатих, і Еден живе в ньому. Переміщення людей між світами жорстко контролюється. Адам змушений животіти в убогості нижнього світу, але заради любові він готовий порушити заборону і перейти з одного світу в інший.
Сюжет #2:
Головних героїв фільму звуть Адам і Єва, їх дитяча дружба переростає в кохання, але з деяких пір вони живуть в різних світах. Знехтувавши небезпеку, закоханий Адам вирушає на пошуки Єви в альтернативний світ.

Тривалість: 01:40:22
Якість: 720p [CHD]

Відео:
кодек:
розмір кадру: 1280 x 536
бітрейт: 6 345 кб/с

Аудіо #1:
мова: українська
переклад: багатоголосий закадровий
кодек: 2.0
бітрейт: 192 кб/с
Ролі озвучили:

Павло Скороходько, Юлія Перенчук, Євген Пашин, Анатолій Зіновенко, Ірина Дорошенко, Лідія Муращенко, Ніна Касторф, Олесь Гімбаржевський, Михайло Жонін, Михайло Тишин, Максим Кондратюк, Олена Яблучна, Людмила Ардельян, Олег Лепенець, Дмитро Завадський, Тетяна Антонова та інші.
Джерело озвучення:


Аудіо #2:
мова: англійська
переклад: оригінал
кодек: 5.1
бітрейт: 1536 кб/с

Субтитри #1: форсовані
мова: українська
тип: програмні (м'які)
формат: *.srt

Субтитри #2: SDH
мова: англійська
тип: програмні (м'які)
формат: *.srt


Official Trailer


MediaInfo

Код:
General
Unique ID                      : 178127120463280426401338656389827827602 (0x86020917E3A340FF90E4DBD2927E9792)
Complete name                  : D:\Torrents\Upside Down (2012) 720p [Ukr, Eng] [Hurtom].mkv
Format                         : Matroska
Format version                 : Version 4 / Version 2
File size                      : 5.64 GiB
Duration                       : 1h 40mn
Overall bit rate               : 8 042 Kbps
Movie name                     : Upside Down (2012) 720p [Ukr, Eng] [Hurtom] by Delight
Encoded date                   : UTC 2013-03-20 19:51:25
Writing application            : mkvmerge v6.1.0 ('Old Devil') built on Mar  2 2013 14:32:37
Writing library                : libebml v1.3.0 + libmatroska v1.4.0

Video
ID                             : 1
Format                         : AVC
Format/Info                    : Advanced Video Codec
Format profile                 : [email protected]
Format settings, CABAC         : Yes
Format settings, ReFrames      : 12 frames
Codec ID                       : V_MPEG4/ISO/AVC
Duration                       : 1h 40mn
Bit rate                       : 6 345 Kbps
Width                          : 1 280 pixels
Height                         : 536 pixels
Display aspect ratio           : 2.40:1
Frame rate mode                : Constant
Frame rate                     : 23.976 fps
Color space                    : YUV
Chroma subsampling             : 4:2:0
Bit depth                      : 8 bits
Scan type                      : Progressive
Bits/(Pixel*Frame)             : 0.386
Stream size                    : 4.33 GiB (77%)
Title                          : Upside Down (2012) 720p [CHD]
Writing library                : core 120 r2120 0c7dab9
Encoding settings              : cabac=1 / ref=12 / deblock=1:-3:-3 / analyse=0x3:0x113 / me=umh / subme=10 / psy=1 / psy_rd=1.10:0.15 / mixed_ref=1 / me_range=32 / chroma_me=1 / trellis=2 / 8x8dct=1 / cqm=0 / deadzone=21,11 / fast_pskip=0 / chroma_qp_offset=-2 / threads=12 / sliced_threads=0 / nr=0 / decimate=1 / interlaced=0 / bluray_compat=0 / constrained_intra=0 / bframes=6 / b_pyramid=2 / b_adapt=2 / b_bias=0 / direct=3 / weightb=1 / open_gop=0 / weightp=2 / keyint=250 / keyint_min=23 / scenecut=40 / intra_refresh=0 / rc_lookahead=40 / rc=2pass / mbtree=0 / bitrate=6345 / ratetol=1.0 / qcomp=0.60 / qpmin=0 / qpmax=69 / qpstep=4 / cplxblur=20.0 / qblur=0.5 / vbv_maxrate=40000 / vbv_bufsize=30000 / nal_hrd=none / ip_ratio=1.40 / pb_ratio=1.30 / aq=1:0.80
Language                       : English
Default                        : Yes
Forced                         : No

Audio #1
ID                             : 2
Format                         : AC-3
Format/Info                    : Audio Coding 3
Mode extension                 : CM (complete main)
Format settings, Endianness    : Big
Codec ID                       : A_AC3
Duration                       : 1h 40mn
Bit rate mode                  : Constant
Bit rate                       : 192 Kbps
Channel(s)                     : 2 channels
Channel positions              : Front: L R
Sampling rate                  : 48.0 KHz
Bit depth                      : 16 bits
Compression mode               : Lossy
Stream size                    : 138 MiB (2%)
Title                          : 2.0; 192 kbps; багатоголосий закадровий {1+1}
Language                       : Ukrainian
Default                        : Yes
Forced                         : No

Audio #2
ID                             : 3
Format                         :
Format/Info                    : Digital Theater Systems
Mode                           : 16
Format settings, Endianness    : Big
Codec ID                       : A_DTS
Duration                       : 1h 40mn
Bit rate mode                  : Constant
Bit rate                       : 1 509 Kbps
Channel(s)                     : 6 channels
Channel positions              : Front: L C R, Side: L R, LFE
Sampling rate                  : 48.0 KHz
Bit depth                      : 24 bits
Compression mode               : Lossy
Stream size                    : 1.06 GiB (19%)
Title                          : 5.1; 1536 kbps; original
Language                       : English
Default                        : No
Forced                         : No

Text #1
ID                             : 4
Format                         : UTF-8
Codec ID                       : S_TEXT/UTF8
Codec ID/Info                  : UTF-8 Plain Text
Title                          : forced
Language                       : Ukrainian
Default                        : Yes
Forced                         : No

Text #2
ID                             : 5
Format                         : UTF-8
Codec ID                       : S_TEXT/UTF8
Codec ID/Info                  : UTF-8 Plain Text
Title                          : SDH
Language                       : English
Default                        : No
Forced                         : No

Світлини

















Джерело:
За запис звуку подяка OlegCena, за синхронізацію - Romario_O


 Трекер:    Зареєстрований   

Завантажити / скачати фільм українською



відео для новачків



 Зареєстрований:   2013-03-20 22:36
 Розмір:   5.64 GB 
 Оцінка фільму:   9.2/10 (Голосів: 29)
   
Інші релізи
kmr 
Поважний учасник


З нами з: 18.04.10
Востаннє: 26.11.16
Повідомлень: 150

2013-03-22 12:52  
хтось дивився фільм?) як? варте перегляду?
don pedro 
Попереджень: 1
Попереджень: 1 


З нами з: 29.06.11
Востаннє: 04.12.16
Повідомлень: 8731

2013-03-22 12:57  
kmr
Мені сподобався. Непросте кіно.

kmr 
Поважний учасник


З нами з: 18.04.10
Востаннє: 26.11.16
Повідомлень: 150

2013-03-22 13:05  
don pedro
згоден, згідно опису та трейлеру, кінчик неординарний)дякую)

DеLight 
Відео Гуртом - фільмокрай
Відео Гуртом - фільмокрай


З нами з: 24.08.11
Востаннє: 17.11.16
Повідомлень: 664

2013-03-22 13:15  
Вчора переглянув. Доволі оригінальне фентезі. Історія з одного боку проста, але й непогана. Для мене 7-8/10 цілком.
assman 
VIP


З нами з: 09.11.09
Востаннє: 04.12.16
Повідомлень: 375

2013-04-22 23:17  
Жахливий фільм!
Якби не маса казусів, зійшов би за сопливу комедію, яку і так важко дивитись, а так ще й купа неясно чого.

Novosvit 
Новенький


З нами з: 26.11.08
Востаннє: 03.12.16
Повідомлень: 24

2013-06-18 17:56  
Ну таке. На 7 з 10.
BMK12 
Відео Гуртом - підтримка та поширення
Відео Гуртом - підтримка та поширення


З нами з: 13.04.09
Востаннє: 04.12.16
Повідомлень: 2982

2013-07-31 21:41  
Досить непогане кіно без фантастичних бойових викрутасів. Оцінка: 8/10.
FreeUkrainian2015 
Свій


З нами з: 15.04.13
Востаннє: 26.11.15
Повідомлень: 69

2013-08-03 17:48  
Хорошу розминку для ший глядачів вигадалиHappy) -- автори/сценаристи/режисери стрічки занадто буквально підійшли до терміну "Паралельні світи" Happy)) За реалізацію (спецефекти тощо) -- 9/10, за ідею -- 4/10 (по-дурному було перевертати людей й цілих години з півтори-дві у такому стані щокадру) , моя середня оцінка -- 6-7/10...
V.Hoshovsky 
Новенький


З нами з: 27.03.11
Востаннє: 12.11.16
Повідомлень: 15

2013-08-24 15:11  
Підтримую думку, що ідея поганенька, хоча і оригінальна, раніше подібного не бачив.
Не знаю як кого, але мене бісить те, що в фільмі знехтували всіма законами фізики...
3/10 - фільм на любителя

Ваш часовий пояс: GMT + 2 Години

Нова тема   Відповісти