Завантажити та скачати торренти українською


White - Бий першим! (2007) [FLAC] | Alternative Metal

Нові коментарі

Нова тема   Відповісти
Останній раз роздавалося MAKAPOHHIK (2016-12-05)
Автор Повідомлення
fanDYNAMO 
Частий відвідувач


З нами з: 30.12.12
Востаннє: 03.12.16
Повідомлень: 38

2013-03-20 20:53  
White - Бий першим! (2007) [FLAC] | Alternative Metal

White - Бий першим! (2007) [FLAC] | Alternative Metal


Стиль: Alternative Metal
Країна, місто: Україна, Львів
Сайти: Офіційний сайт
Видавець: MOON Records

Виконавці:
Олег Шевченко — вокал, соло-гітара
Сергій Бойко — ритм-гітара
Микола Білозор — бас-гітара
Дмитро Бунтов — ударні

Колишні учасники:
Андрій «MISSION» Мішин — клавішні, ді-джей (2005-2007)
Настя «DJ Arnaby» — ді-джей (2007-2008)
Влад Хмарський — ударні (2005-2010)
Володимир Ахременко — ударні (2011-2013)
Станіслав Семілєтов — соло-гітара (2011-2013)

Пісні:
    01. Intro (01:11)
    02. Бий перший (03:29)
    03. Місто снів (Original) (03:27)
    04. Oz (04:26)
    05. За тобою тінь (04:14)
    06. Роком (03:35)
    07. Кинь тачку (02:44)
    08. You Are My Ocean (03:59)
    09. Вона, сама (03:28)
    10. Жах (03:21)
    11. Байкер січ (03:35)
    12. Outro (02:55)
    +
    мультимедійна частина: тексти, контакти, історія, фотографії, 4 відеокліпи
    відео
    Бий першим

    Тривалість: 00:03:34
    Відео:
    кодек: MPEG1 Video
    розмір кадру: 352 x 288
    бітрейт: 1150 Кбіт/сек

    Аудіо:
    мова: українська
    кодек: MPEG Audio
    бітрейт: 224 кбіт/с
    Скріншоти:
    Кинь тачку

    Тривалість: 00:02:43
    Відео:
    кодек: MPEG1 Video
    розмір кадру: 352 x 288
    бітрейт: 1150 Кбіт/сек

    Аудіо:
    мова: українська
    кодек: MPEG Audio
    бітрейт: 224 кбіт/с
    Скріншоти:
    Місто снів

    Тривалість: 00:03:48
    Відео:
    кодек: MPEG1 Video
    розмір кадру: 352 x 288
    бітрейт: 1150 Кбіт/сек

    Аудіо:
    мова: українська
    кодек: MPEG Audio
    бітрейт: 224 кбіт/с
    Скріншоти:
    Роком (live)

    Тривалість: 00:03:42
    Відео:
    кодек: MPEG1 Video
    розмір кадру: 352 x 288
    бітрейт: 1150 Кбіт/сек

    Аудіо:
    мова: українська
    кодек: MPEG Audio
    бітрейт: 224 кбіт/с
    Скріншоти:

Тривалість: 00:40:30
Мова: українська (01-07, 09-12), англійська (08)
Аудіо-кодек: FLAC
Бітрейт: ~1012 кб/с
Джерело: CD
Звіт EAC:
Exact Audio Copy V1.0 beta 3 from 29. August 2011

EAC extraction logfile from 19. March 2013, 12:40

White / Byi Pershim!

Used drive : ASUS DRW-1604P Adapter: 1 ID: 0

Read mode : Secure
Utilize accurate stream : Yes
Defeat audio cache : Yes
Make use of C2 pointers : No

Read offset correction : 48
Overread into Lead-In and Lead-Out : No
Fill up missing offset samples with silence : Yes
Delete leading and trailing silent blocks : No
Null samples used in CRC calculations : Yes
Used interface : Native Win32 interface for Win NT & 2000

Used output format : User Defined Encoder
Selected bitrate : 128 kBit/s
Quality : High
Add ID3 tag : No
Command line compressor : C:\Program Files\FLAC\flac.exe
Additional command line options : -V -8 -T "Date=%year%" -T "Genre=%genre%" %source%

TOC of the extracted CD

Track | Start | Length | Start sector | End sector
---------------------------------------------------------
1 | 0:00.00 | 1:11.25 | 0 | 5349
2 | 1:11.25 | 3:29.67 | 5350 | 21091
3 | 4:41.17 | 3:27.35 | 21092 | 36651
4 | 8:08.52 | 4:26.70 | 36652 | 56671
5 | 12:35.47 | 4:14.39 | 56672 | 75760
6 | 16:50.11 | 3:35.57 | 75761 | 91942
7 | 20:25.68 | 2:44.00 | 91943 | 104242
8 | 23:09.68 | 3:59.40 | 104243 | 122207
9 | 27:09.33 | 3:28.38 | 122208 | 137845
10 | 30:37.71 | 3:21.10 | 137846 | 152930
11 | 33:59.06 | 3:35.50 | 152931 | 169105
12 | 37:34.56 | 2:55.39 | 169106 | 182269
13 | 43:02.20 | 17:53.07 | 193670 | 274151

Range status and errors

Selected range

Filename C:\Program Files\WHITE - Бий першим (2007)\White - Byi Pershim!.wav

Peak level 100.0 %
Extraction speed 2.3 X
Range quality 99.9 %
Test CRC 34CA4E5C
Copy CRC 34CA4E5C
Copy OK

No errors occurred

AccurateRip summary

Track 1 not present in database
Track 2 not present in database
Track 3 not present in database
Track 4 not present in database
Track 5 not present in database
Track 6 not present in database
Track 7 not present in database
Track 8 not present in database
Track 9 not present in database
Track 10 not present in database
Track 11 not present in database
Track 12 not present in database

None of the tracks are present in the AccurateRip database

End of status report
Індексна карта (.CUE):
REM GENRE "Alternative metal"
REM DATE 2007
REM DISCID A00E470D
REM COMMENT "ExactAudioCopy v1.0b3"
PERFORMER "White"
TITLE "Byi Pershim!"
FILE "White - Byi Pershim!.flac" WAVE
TRACK 01 AUDIO
TITLE "Intro"
PERFORMER "White"
INDEX 01 00:00:00
TRACK 02 AUDIO
TITLE "Byi Pershym"
PERFORMER "White"
INDEX 01 01:11:25
TRACK 03 AUDIO
TITLE "Misto Sniv Original"
PERFORMER "White"
INDEX 01 04:41:17
TRACK 04 AUDIO
TITLE "Oz"
PERFORMER "White"
INDEX 01 08:08:52
TRACK 05 AUDIO
TITLE "Za Toboyu Tin"
PERFORMER "White"
INDEX 01 12:35:47
TRACK 06 AUDIO
TITLE "Rockom"
PERFORMER "White"
INDEX 01 16:50:11
TRACK 07 AUDIO
TITLE "Kyn Tachku"
PERFORMER "White"
INDEX 01 20:25:68
TRACK 08 AUDIO
TITLE "You Are My Ocean"
PERFORMER "White"
INDEX 01 23:09:68
TRACK 09 AUDIO
TITLE "Vona,Sama"
PERFORMER "White"
INDEX 01 27:09:33
TRACK 10 AUDIO
TITLE "Zhah"
PERFORMER "White"
INDEX 01 30:37:71
TRACK 11 AUDIO
TITLE "Biker Sich"
PERFORMER "White"
INDEX 01 33:59:06
TRACK 12 AUDIO
TITLE "Outro"
PERFORMER "White"
INDEX 01 37:34:56
Звіт auCDtect Task Manager:
-----------------------

DON'T MODIFY THIS FILE

-----------------------

PERFORMER: auCDtect Task Manager, ver. 1.5.1RC6 build 1.5.1.7
Copyright (c) 2008-2010 y-soft. All rights reserved
http://y-soft.org

ANALYZER: auCDtect: CD records authenticity detector, version 0.8.2
Copyright (c) 2004 Oleg Berngardt. All rights reserved.
Copyright (c) 2004 Alexander Djourik. All rights reserved.

FILE: White - Byi Pershim!.flac
Size: 312707852 Hash: 6AABC8684660FDF8920585765A589B8A Accuracy: -m0
Conclusion: CDDA 100%
Signature: 92B0E1E95C6789636D0B7C4669B2CF035E4DD009


Срібний реліз (на рейтинг впливає 50% завантаженого)
 Трекер:    Зареєстрований   

Завантажити / скачати українську музику



відео для новачків



 Зареєстрований:   2016-09-04 10:14
 Розмір:   478 MB 
 Оцінка музики:   10/10 (Голосів: 4)
   
ssTAss 
Модератор музики


З нами з: 05.07.08
Востаннє: 05.12.16
Повідомлень: 10939

2013-03-21 01:36  
на диску ще було 4 відео
не хочете додати? (з оформленням допоможу)

fanDYNAMO 
Частий відвідувач


З нами з: 30.12.12
Востаннє: 03.12.16
Повідомлень: 38

2013-03-24 17:46  
ssTAss
хочу додати, допомогайте!

ssTAss 
Модератор музики


З нами з: 05.07.08
Востаннє: 05.12.16
Повідомлень: 10939

2013-03-24 17:51  
fanDYNAMO написано:
хочу додати, допомогайте!

змінюйте торрент (вже з кліпами), ставайте на роздачу, завантажу і тоді допоможу з оформленням

fanDYNAMO 
Частий відвідувач


З нами з: 30.12.12
Востаннє: 03.12.16
Повідомлень: 38

2013-03-24 18:51  
Торрент замінив!
ssTAss 
Модератор музики


З нами з: 05.07.08
Востаннє: 05.12.16
Повідомлень: 10939

2013-03-24 23:11  
уу, бачу на диску були не просто відео, а ціла мультимедійна частина зі своєю ексешкою
відео в середині, правильно зрозумів?
зараз гляну

Додано через 4 хвилини 13 секунд:

fanDYNAMO написано:
6 Extra/DATA/Menu1.dav

оці чотири файли з розширенням дав і є тими кліпами
визначу параметри і потім оформлю

fanDYNAMO 
Частий відвідувач


З нами з: 30.12.12
Востаннє: 03.12.16
Повідомлень: 38

2013-03-25 01:33  
ssTAss
правильно зрозумів, мультимедійна частина - фото, тексти пісень, відео та історія
інше видаляти чи най так і залишаеться?

ssTAss 
Модератор музики


З нами з: 05.07.08
Востаннє: 05.12.16
Повідомлень: 10939

2013-03-27 01:59  
fanDYNAMO написано:
інше видаляти чи най так і залишаеться?

нічого не потрібно видаляти
вже все оформив

fanDYNAMO 
Частий відвідувач


З нами з: 30.12.12
Востаннє: 03.12.16
Повідомлень: 38

2013-03-27 21:46  
ssTAss
дякую за допомогу оформлення релізу!

sandman 
Свій


З нами з: 12.08.12
Востаннє: 04.12.16
Повідомлень: 74

2016-04-05 10:43  
якщо в когось ще залишилось - поновіть роздачу, будь ласка
ssTAss 
Модератор музики


З нами з: 05.07.08
Востаннє: 05.12.16
Повідомлень: 10939

2016-04-05 21:41  
зараз стану на роздачу

Додано через 8 хвилин 13 секунд:

дивно, 95% і далі не йде
видно щось змінював, але що? можливо, правив теги...
тоді зараз перезалию торент-файл - старий і так вже 3 роки ніхто не роздає

Додано через 11 хвилин 45 секунд:

все, можете вантажити

sandman 
Свій


З нами з: 12.08.12
Востаннє: 04.12.16
Повідомлень: 74

2016-04-05 21:50  
ssTAss
Дякую, проте, тягнути зможу лише завтра зранку. Якщо маєте можливість завтра вдень постояти на роздачі,– буду вдячний. Якщо ні – то вже увечері. Наперед ще раз дякую

fanDYNAMO 
Частий відвідувач


З нами з: 30.12.12
Востаннє: 03.12.16
Повідомлень: 38

2016-09-02 17:16  
ssTAss
це тому, що ти в роздачу додав "За тобою тінь.avi", верніше по ходу закинув у папку... в торренті 54 позиція

Додано через 1 хвилину 4 секунди:

мож я всеж таки зроблю орігінальний торрент і встану на роздачу?

ssTAss 
Модератор музики


З нами з: 05.07.08
Востаннє: 05.12.16
Повідомлень: 10939

2016-09-02 20:37  
fanDYNAMO написано:
"За тобою тінь.avi", верніше по ходу закинув у папку

так, справді, зайвий файлик, але на перевірку старого торента воно не впливало
все ж таки були якісь зміни
fanDYNAMO написано:
мож я всеж таки зроблю орігінальний торрент і встану на роздачу?

згоден, робіть, але не пропадайте))

fanDYNAMO 
Частий відвідувач


З нами з: 30.12.12
Востаннє: 03.12.16
Повідомлень: 38

2016-09-03 19:35  
домовились, сьогодні зроблю файлик і відпишуся в лс!
і буду на роздачі стояти довго!

fanDYNAMO 
Частий відвідувач


З нами з: 30.12.12
Востаннє: 03.12.16
Повідомлень: 38

2016-09-04 10:15  
все! оновив і встав на роздачу!
Volovik 
VIP


З нами з: 21.02.10
Востаннє: 04.12.16
Повідомлень: 341

2016-09-04 14:53  
fanDYNAMO
кліпи потім додасте? був один у роздачі і той прибрали(

fanDYNAMO 
Частий відвідувач


З нами з: 30.12.12
Востаннє: 03.12.16
Повідомлень: 38

2016-09-04 15:18  
Volovik
кліпи в мультимедійній частині, у папці "Extra", запустіть файл White.exe

Volovik 
VIP


З нами з: 21.02.10
Востаннє: 04.12.16
Повідомлень: 341

2016-09-04 16:36  
fanDYNAMO
дякую!

ssTAss 
Модератор музики


З нами з: 05.07.08
Востаннє: 05.12.16
Повідомлень: 10939

2016-09-04 17:06  
Volovik написано:
був один у роздачі і той прибрали(

цей кліп я помилково додав до роздачі
тепер все правильно - 4 кліпи в теці екстра
fanDYNAMO
дякую і приєднався до роздачі

Ваш часовий пояс: GMT + 2 Години

Нова тема   Відповісти