Завантажити та скачати торренти українською


VA - Шедеври української музики. Українське бароко (2009) [FLAC] | Folk

Нові коментарі

Нова тема   Відповісти
Автор Повідомлення
civ 
VIP


З нами з: 16.02.11
Востаннє: 08.12.16
Повідомлень: 429

2013-03-18 20:03  
VA - Шедеври української музики. Українське бароко (2009) [FLAC] | Folk

VA - Шедеври української музики. Українське бароко (2009) [FLAC] | Folk


Стиль: Folk
Видавець: Країна мрій
Виконавці:
Ніна Матвієнко (1, 4, 8, 10, 14)
Надія Боянівська (2, 5, 9, 12)
Тарас Компаніченко (6, 13, 15)
Ансамбль давньої музики під керуванням Костянтина Чечені (1-5, 7-12, 14)

Пісні:
    01. Бистренькії річоньки
    02. Ой ти, птичко жовтобоко
    03. Сюїта з рукописної збірки XVII ст.
    04. Ой біда, біда мні, чайці-небозі
    05. А у полі річка
    06. Дума («Всі покою щире прагнуть…»)
    07. Твір №28 з рукописної збірки XVII ст.
    08. Ганусенько, коханая
    09. Ой перестань, мій наймильший, до мене ходити
    10. Два брати милі сіно косили
    11. Твір №33 з рукописної збірки XVII ст.
    12. Сизий голубочку
    13. Занехайте мене
    14. Нещасная доля без милого жити
    15. Пийте, браття, попийте

Тривалість: 00:49:14
Мова: українська
Аудіо-кодек: FLAC
Бітрейт: 810 кб/с
Джерело: власний ріп
Тип ріпу: image + cue + обкладинки
EAC Log

Exact Audio Copy V1.0 beta 3 from 29. August 2011

EAC extraction logfile from 19. January 2013, 16:36

Various / Шедеври української музики. Українське барокко

Used drive : MATSHITADVD-RAM UJ8C1 Adapter: 1 ID: 0

Read mode : Secure
Utilize accurate stream : Yes
Defeat audio cache : Yes
Make use of C2 pointers : No

Read offset correction : 6
Overread into Lead-In and Lead-Out : No
Fill up missing offset samples with silence : Yes
Delete leading and trailing silent blocks : No
Null samples used in CRC calculations : Yes
Used interface : Native Win32 interface for Win NT & 2000

Used output format : Internal WAV Routines
Sample format : 44.100 Hz; 16 Bit; Stereo

TOC of the extracted CD

Track | Start | Length | Start sector | End sector
---------------------------------------------------------
1 | 0:00.00 | 3:48.66 | 0 | 17165
2 | 3:48.66 | 1:58.35 | 17166 | 26050
3 | 5:47.26 | 2:55.08 | 26051 | 39183
4 | 8:42.34 | 4:37.02 | 39184 | 59960
5 | 13:19.36 | 3:24.43 | 59961 | 75303
6 | 16:44.04 | 4:35.31 | 75304 | 95959
7 | 21:19.35 | 2:17.44 | 95960 | 106278
8 | 23:37.04 | 3:07.46 | 106279 | 120349
9 | 26:44.50 | 3:26.31 | 120350 | 135830
10 | 30:11.06 | 4:22.70 | 135831 | 155550
11 | 34:34.01 | 2:01.50 | 155551 | 164675
12 | 36:35.51 | 2:37.47 | 164676 | 176497
13 | 39:13.23 | 3:10.43 | 176498 | 190790
14 | 42:23.66 | 3:12.62 | 190791 | 205252
15 | 45:36.53 | 3:37.46 | 205253 | 221573

Range status and errors

Selected range

Filename C:\Music\Various - Шедеври української музики. Українське барокко\Various - Шедеври української музики. Українське барокко.wav

Peak level 96.0 %
Extraction speed 4.5 X
Range quality 100.0 %
Copy CRC 2AEDAD09
Copy OK

No errors occurred

End of status report
Audiochecker

fooCDtect - foobar2000 + auCDtect, baralgin.

auCDtect: CD records authenticity detector, version 0.8.2
Copyright (c) 2004 Oleg Berngardt. All rights reserved.
Copyright (c) 2004 Alexander Djourik. All rights reserved.

mode: 0

===========================================
Track: 01. Бистренькії річоньки
Quality: CDDA 87%
===========================================
Track: 02. Ой ти, птичко жовтобоко
Quality: CDDA 99%
===========================================
Track: 03. Сюїта з рукописної збірки XVII ст.
Quality: CDDA 100%
===========================================
Track: 04. Ой біда, біда мні, чайці-небозі
Quality: CDDA 100%
===========================================
Track: 05. А у полі річка
Quality: CDDA 100%
===========================================
Track: 06. Дума («Всі покою щире прагнуть…»)
Quality: CDDA 100%
===========================================
Track: 07. Твір №28 з рукописної збірки XVII ст.
Quality: MPEG 90%
===========================================
Track: 08. Ганусенько, коханая
Quality: CDDA 100%
===========================================
Track: 09. Ой перестань, мій наймильший, до мене ходити
Quality: CDDA 99%
===========================================
Track: 10. Два брати милі сіно косили
Quality: CDDA 100%
===========================================
Track: 11. Твір №33 з рукописної збірки XVII ст.
Quality: CDDA 85%
===========================================
Track: 12. Сизий голубочку
Quality: CDDA 100%
===========================================
Track: 13. Занехайте мене
Quality: CDDA 100%
===========================================
Track: 14. Нещасная доля без милого жити
Quality: CDDA 99%
===========================================
Track: 15. Пийте, браття, попийте
Quality: CDDA 100%
===========================================
Додаткова інформація:
"Українське бароко" – нова і, на сьогоднішній день, остання платівка з колекційної серії "Шедеври Української Музики". Наскільки нам відомо, саме нею серія і завершиться – інших збірок в її межах не заплановано. У зв’язку з чим нагадаємо: серію видано обмеженим накладом – і на сьогоднішній день лишилося зовсім небагато повних комплектів цієї колекції.

Дана ж збірка презентує старовинні музичні твори, створені у "витончену епоху", майже на межі Нового часу – до речі, в Україні епоха бароко тривала дещо довше, ніж у більшості інших країн (десь до середини ХVIIІ ст.). Так чи інакше, роботу тут було проведено чималеньку – адже більшість творів, зверніть увагу, відновлено за рукописними збірками ХVII – початку ХVIIІ століть. Втім, воно дійсно вартувало тих зусиль – платівка вийшла просто чудовою. Легкою, насиченою і дуже атмосферною – вона дійсно захоплює уяву і без напруження переносить.. ні, не у ті часи – у наше уявлення про ті часи. І тому, мабуть, там дещо більше краси й вишуканості, ніж воно було насправді (бо ті часи були зовсім далекі від спокою) – але це не стає на заваді. Зрештою, ми всі живемо в уявному світі, чи не так?..

Умка




Якщо Ви справді бажаєте підтримати українське - після прослуховування, якщо музика вам сподобалась, придбайте ліцензійний диск. Підтримаймо вітчизняних виконавців!


Срібний реліз (на рейтинг впливає 50% завантаженого)
 Трекер:    Зареєстрований   

Завантажити / скачати українську музику



відео для новачків



 Зареєстрований:   2013-03-18 20:03
 Розмір:   298 MB 
 Оцінка музики:   10/10 (Голосів: 7)
   
Ваш часовий пояс: GMT + 2 Години

Нова тема   Відповісти