Завантажити та скачати торренти українською


Ідеальний світ / A Perfect World (1993) 1080p Ukr/Eng | Sub Ukr/Eng

Нові коментарі

Нова тема   Відповісти
Автор Повідомлення
Anonymous 







2013-03-18 13:57  
Ідеальний світ / A Perfect World (1993) 1080p Ukr/Eng | Sub Ukr/Eng

Ідеальний світ / A Perfect World (1993) 1080p Ukr/Eng | Sub Ukr/Eng


Жанр: драма, кримінальний, трилер
Країна: США



Кіностудія / кінокомпанія: Malpaso Productions, Warner Bros. Pictures
Режисер: Клінт Іствуд / Clint Eastwood
Актори: Кевін Костнер / Kevin Costner, Клінт Іствуд / Clint Eastwood, Лора Дерн / Laura Dern, Т. Дж. Лоузер / T. J. Lowther

Сюжет:
Історія про людину, яка блукає шляхами Техасу назустріч суворій долі і яку переслідує поліція. У фільмі один на один стикаються дві людини, які стоять по різні боки закону - герої Кевіна Костнера і Клінта Іствуда. Ці люди - антиподи, з абсолютно протилежними характерами. Події фільму розгортаються в Техасі восени 1963 року. Бутч Хайнс (К. Костнер) - загартований життям злочинець, який втік разом з юним заручником (відмінний дебют у кіно Т. Дж. Лоутера). Маленький хлопчик Філіп бачить у Бутчі батька, якого в нього ніколи не було. Іствуд - це хитрий техаський рейнджер Ред Гарнетт, ватажок шерифів, йому знайома кожна стежина в графстві. І більш того - йому знайомий і невловимий Хайнс, адже їх шляхи одного разу вже перетиналися.
«Ідеальний світ» - одна з найбільш недооцінених кінокартин дев'яностих років, і, ймовірно, одна з самих неоцінених картин американської кіноісторії. Простий, трохи дивний, і часом навіть безглуздий фільм, «Ідеальний світ», мабуть, є чи не найкращою роботою Іствуда в режисурі, і чи не найкращою вправою Костнера в акторській майстерності...


рейтинг MPAA: PG-13 - дітям до 13 років перегляд не бажаний
Вікова категорія: 16+

Тривалість: 02:18:18
Якість: 1080p
Відео:
кодек:
розмір кадру: 1920х800
бітрейт: 9671 кб/с

Аудіо # 1:
мова: українська
переклад: багатоголосий закадровий
кодек: 5.1
бітрейт: 384 кб/с
Інформація про озвучення:

Ролі озвучили: Володимир Терещук (Буч / Кевін Костнер), Роман Семисал, Інна Капінос? і Олена Яблучна.
Аудіо # 2:
мова: англійська
переклад: оригінал
кодек: 5.1
бітрейт: 640 кб/с

Субтитри # 1:
мова: українська (повні)
тип: програмні (м'які)
формат: *.srt

Субтитри # 2:
мова: англійська (SDH)
тип: програмні (м'які)
формат: *.srt

Збережено оригінальні розділи, як на Blu-ray.
[info]: frame I:1821 Avg QP:17.16 size:188247
[info]: frame P:55334 Avg QP:20.26 size: 83678
[info]: frame B:141800 Avg QP:21.95 size: 35669
MediaInfo
General
Unique ID : 201063796701324519128049974781473257225 (0x97437A8AC4870A7A9E1FC4B29DD0F709)
Complete name : A.Perfect.World.1993..1080p.Ukr.Eng.mkv
Format : Matroska
Format version : Version 4 / Version 2
File size : 10.3 GiB
Duration : 2h 18mn
Overall bit rate : 10.7 Mbps
Movie name : Ідеальний світ / A Perfect World (1993) release by igor911 for Hurtom.com
Encoded date : UTC 2013-03-18 10:59:55
Writing application : mkvmerge v6.1.0 ('Old Devil') built on Mar 2 2013 14:32:37
Writing library : libebml v1.3.0 + libmatroska v1.4.0

Video
ID : 1
Format : AVC
Format/Info : Advanced Video Codec
Format profile : [email protected]
Format settings, CABAC : Yes
Format settings, ReFrames : 5 frames
Codec ID : V_MPEG4/ISO/AVC
Duration : 2h 18mn
Bit rate : 9 671 Kbps
Width : 1 920 pixels
Height : 800 pixels
Display aspect ratio : 2.40:1
Frame rate mode : Constant
Frame rate : 23.976 fps
Color space : YUV
Chroma subsampling : 4:2:0
Bit depth : 8 bits
Scan type : Progressive
Bits/(Pixel*Frame) : 0.263
Stream size : 9.14 GiB (88%)
Title : Ідеальний світ / A Perfect World / Совершенный мир (1993) rip by K.A.F.
Writing library : core 129 r2245 bc13772
Encoding settings : cabac=1 / ref=5 / deblock=1:-3:-3 / analyse=0x3:0x133 / me=tesa / subme=11 / psy=1 / psy_rd=1.00:0.10 / mixed_ref=1 / me_range=32 / chroma_me=1 / trellis=2 / 8x8dct=1 / cqm=0 / deadzone=21,11 / fast_pskip=0 / chroma_qp_offset=-3 / threads=12 / lookahead_threads=2 / sliced_threads=0 / nr=0 / decimate=0 / interlaced=0 / bluray_compat=0 / constrained_intra=0 / bframes=3 / b_pyramid=2 / b_adapt=2 / b_bias=0 / direct=3 / weightb=1 / open_gop=0 / weightp=2 / keyint=240 / keyint_min=23 / scenecut=40 / intra_refresh=0 / rc_lookahead=60 / rc=2pass / mbtree=1 / bitrate=9671 / ratetol=1.0 / qcomp=0.60 / qpmin=0 / qpmax=69 / qpstep=4 / cplxblur=20.0 / qblur=0.5 / ip_ratio=1.40 / aq=1:1.00
Language : English
Default : Yes
Forced : No

Audio #1
ID : 2
Format : AC-3
Format/Info : Audio Coding 3
Mode extension : CM (complete main)
Format settings, Endianness : Big
Codec ID : A_AC3
Duration : 2h 18mn
Bit rate mode : Constant
Bit rate : 384 Kbps
Channel(s) : 6 channels
Channel positions : Front: L C R, Side: L R, LFE
Sampling rate : 48.0 KHz
Bit depth : 16 bits
Compression mode : Lossy
Stream size : 380 MiB (4%)
Title : MVO K1 5.1 384kbps [Hurtom-Lan, greg_7]
Language : Ukrainian
Default : Yes
Forced : No

Audio #2
ID : 3
Format : AC-3
Format/Info : Audio Coding 3
Mode extension : CM (complete main)
Format settings, Endianness : Big
Codec ID : A_AC3
Duration : 2h 18mn
Bit rate mode : Constant
Bit rate : 640 Kbps
Channel(s) : 6 channels
Channel positions : Front: L C R, Side: L R, LFE
Sampling rate : 48.0 KHz
Bit depth : 16 bits
Compression mode : Lossy
Stream size : 633 MiB (6%)
Title : original 5.1ch 640 kbps
Language : English
Default : No
Forced : No

Text #1
ID : 4
Format : UTF-8
Codec ID : S_TEXT/UTF8
Codec ID/Info : UTF-8 Plain Text
Title : Ukr full
Language : Ukrainian
Default : Yes
Forced : No

Text #2
ID : 5
Format : UTF-8
Codec ID : S_TEXT/UTF8
Codec ID/Info : UTF-8 Plain Text
Title : Eng [SDH]
Language : English
Default : No
Forced : No

Menu
00:00:00.000 : en:The Sky Above
00:01:33.510 : en:No Part of Halloween
00:02:45.332 : en:Hunstville Breakout
00:07:19.230 : en:Terror Before Dawn
00:13:46.659 : en:Governor's Assignee
00:17:12.073 : en:Caravan Departs
00:19:54.735 : en:Threats and Facts
00:22:36.355 : en:At Gunpoint
00:29:37.025 : en:Pair of Intelligent People
00:34:02.749 : en:Time Machine
00:37:18.528 : en:Partners in Theft
00:42:41.684 : en:Guys on Our Own
00:44:20.491 : en:Gallows Humour
00:45:56.629 : en:Friendliest Store in Texas
00:53:30.457 : en:Good Size
00:55:41.421 : en:A Haynes History
00:58:39.474 : en:On and Off Road Passerby
01:03:19.921 : en:Last of the Wild Frontiers
01:05:27.090 : en:Trick or Treat
01:08:28.938 : en:Putting the Brakes On
01:16:16.030 : en:Meat and Potatoes
01:16:56.612 : en:His God-Given Right
01:18:24.742 : en:Bobby Lee Makes a Move
01:20:03.132 : en:Dottie's Squat 'n Gobble
01:24:22.432 : en:Same Difference; Wish List
01:28:26.635 : en:Right Thing to Do
01:31:37.659 : en:Mack's Invitation
01:33:23.932 : en:Dancing All Around
01:38:06.255 : en:Butch's Breaking Point
01:41:08.813 : en:Say Love and Mean It
01:42:55.169 : en:Prayer for the Dying
01:46:39.184 : en:Reluctant Gunshot
01:49:20.304 : en:Talking Man to Man
01:53:49.197 : en:"I'm Glad It Was You"
01:58:51.458 : en:Today's The Day
02:02:40.395 : en:Goodbye to a Ghost
02:04:14.530 : en:Hand in Hand
02:07:09.330 : en:"Do I Know You?"
02:08:02.633 : en:Dead Aim
02:10:46.338 : en:He Didn't Say When
02:11:18.204 : en:"I Don't Know Nothin'"
02:13:01.640 : en:End Credits



Джерело: ріп відео, оригінальні доріжка та субтитри - K.A.F. (рутор); українська доріжка - Lan (зведення) та greg_7 (запис з ТБ); українські субтитри - Lan (всі - Гуртом).

Особиста оцінка: 10 - без зайвих вагань рекомендую всім!


Срібний реліз (на рейтинг впливає 50% завантаженого)
 Трекер:    Зареєстрований   

Завантажити / скачати фільм українською



відео для новачків



 Зареєстрований:   2013-03-18 13:57
 Розмір:   10.33 GB 
 Оцінка фільму:   5.8/10 (Голосів: 23)
   
Інші релізи
Anonymous 







2013-03-18 16:40  
ЗАЛИШАЙТЕСЬ ЯКОМОГА ДОВШЕ НА РОЗДАЧІ !
СКАЧАВ САМ - ДАЙ СКАЧАТИ ІНШИМ


Додано через 1 годину 19 хвилин 43 секунди:

Непрощенний / Unforgiven (1992) 1080p Ukr/Eng | Sub Ukr/Eng з Клінтом Іствудом, Джином Хекменом та Морґаном Фріменом.

Drakoshka 
Localize Team
Localize Team


З нами з: 12.01.13
Востаннє: 03.12.16
Повідомлень: 66

2013-04-13 15:13  
фільм дуже класний, в кінці ревіла як мала дитина! дуже дякую за таке якісне, глибоке кіно!
Anonymous 







2013-04-15 12:16  
Будь ласка! Вам дякую за відгук, після таких відгуків розумієш, що твоя праця не даремна і приносить людям користь.
Ваш часовий пояс: GMT + 2 Години

Нова тема   Відповісти