Завантажити та скачати торренти українською


Буревій - Помсти лють несамовита (demo) (2013) [MP3] | Heathen Black Metal

Нові коментарі

Нова тема   Відповісти
Автор Повідомлення
chujator 
Новенький


З нами з: 03.11.09
Востаннє: 06.09.16
Повідомлень: 17

2013-03-16 19:58  
Буревій - Помсти лють несамовита (demo) (2013) [MP3] | Heathen Black Metal

Буревій - Помсти лють несамовита (demo) (2013) [MP3] | Heathen Black Metal


Стиль: Pagan Black Metal
Країна, місто: Україна, Львів
Видавець: Self Released
Пісні:
    1.Зречені Роду
    2.Земле, Наша Земле
    3.Сонце в Кігтях Орла
    4.Помсти Лють Несамовита
    5.Ой, Полечко-Поле

Тривалість: 00:27:33
Мова: українська
Аудіо-кодек: MP3
Бітрейт: 320 кб/с
Джерело: ріп оригінального диску
Додаткова інформація:
CD
Оновлений офіційний логотип


Напередодні виходу альбому "Втаємничене за межами простору", гурт Буревій з радістю презентує демо "Помсти лють несамовита".
Реліз є символічним завершенням одного етапу музичної творчості гурту і переходом на наступний. У ньому зібрані треки періоду 2007 - 2009 років, які надалі навряд чи будуть виконуватись знову.




Бронзовий реліз (на рейтинг впливає 75% завантаженого)
 Трекер:    Зареєстрований   

Завантажити / скачати українську музику



відео для новачків



 Зареєстрований:   2013-03-16 19:58
 Розмір:   67 MB 
 Оцінка музики:   9.1/10 (Голосів: 8)
   
Genrich 
Новенький


З нами з: 09.09.11
Востаннє: 08.12.16
Повідомлень: 3

2013-03-16 21:36  
...яка гарна назва альбому....chujator - дякую
chujator 
Новенький


З нами з: 03.11.09
Востаннє: 06.09.16
Повідомлень: 17

2013-03-17 14:10  
тринадцятеро скачало... а де коментарі? Happy (окрім Genrich)
гурту надзвичайно важлива і цікава ваша думка щодо даного опусу.

ssTAss 
Модератор музики


З нами з: 05.07.08
Востаннє: 08.12.16
Повідомлень: 10947

2013-03-17 15:01  
chujator написано:
гурту надзвичайно важлива і цікава ваша думка щодо даного опусу.

Ви часом не представник чи учасник гурту? можемо зробити роздачу авторською

хоч не мій то стиль (паган), але завантажу.. зара заціним

chujator 
Новенький


З нами з: 03.11.09
Востаннє: 06.09.16
Повідомлень: 17

2013-03-17 15:10  
ssTAss написано:
Ви часом не представник чи учасник гурту? можемо зробити роздачу авторською


маю привілеї частково представляти інтереси гурту.
щодо авторської роздачі то це непогана думка Happy

ssTAss 
Модератор музики


З нами з: 05.07.08
Востаннє: 08.12.16
Повідомлень: 10947

2013-03-17 15:26  
ну що можу сказати - хоч і не прихильник пагану, але професійність відчутна, є цікаві переходи і гітарні соло, а також ірландські мотиви))... загалом, альбом якісний, граєте добре, от тільки вокаліста в деяких моментах ніби зараз виверне (таке враження)
другий вокаліст (той що так не верещить) має досить приємний голос і його спів додає тому пагану якусь нотку фольку.. за 2-ий і 5-ий трек особливий респект
повторюсь, метал якісний, хоча повинні оцінювати ті, котрі знаються на тому стилі

P.S. 320 тут і не пахне... 128-192

chujator 
Новенький


З нами з: 03.11.09
Востаннє: 06.09.16
Повідомлень: 17

2013-03-17 15:39  
ssTAss написано:
P.S. 320 тут і не пахне... 128-192
Аналіз частотного діапазону


Input File: 01. Зречені Роду.mp3
Channels : 2
Sample Rate : 44100
Precision : 16-bit
Duration : 00:05:52.81 = 15559009 samples = 26460.9 CDDA sectors
File Size : 14.7M
Bit Rate : 333k
Sample Encoding: MPEG audio (layer I, II or III)
/\
||
напевно у вас склалось таке враження через дійсно неякісне зведення.
а за відгук дякую.
Насправді у гурту чистий чоловічий вокал і жіночий скріммінг.

Berserk777 
Частий відвідувач


З нами з: 17.11.10
Востаннє: 23.10.16
Повідомлень: 49

2013-07-23 01:47  
Ого! Жіночого вокалу в українському блеку я ще не чув, як мінімум цікаво)
Але цьому вокалу треба трохи...хм...не знаю, як це сформулювати...жорсткості, а то іноді здається, що вокалістка не співає, а ниє крізь сльози, що якось не дуже в'яжеться з музикою.
А так, то альбом хороший, є над чим працювати, але перспектива у гурту явно є.

лафа 
Новенький


З нами з: 18.03.12
Востаннє: 15.10.16
Повідомлень: 1

2013-09-29 16:02  
цікаво мені подобається в загалом але так як я не є прихильником екстремального вокалу то не можу достойно оцінити...)
usb22swl 
VIP


З нами з: 17.06.08
Востаннє: 08.12.16
Повідомлень: 386

2013-09-29 18:51  
Лафа, ось тобі цікавинка.
kullt 
Новенький


З нами з: 20.06.13
Востаннє: 27.11.16
Повідомлень: 6

2013-12-30 22:54  
нущож, неприхильник "пагану", але послухаю. подальші дії повідомлю
Ваш часовий пояс: GMT + 2 Години

Нова тема   Відповісти