Завантажити та скачати торренти українською


Копи на підхваті [Театральна версія] / The Other Guys [Theatrical Version] (2010) 720p Ukr/Eng

Нові коментарі

Нова тема   Відповісти
Автор Повідомлення
ratbol 
Модератор HD


З нами з: 03.02.09
Востаннє: 10.12.16
Повідомлень: 1088

2013-03-16 18:19  
Копи на підхваті [Театральна версія] / The Other Guys [Theatrical Version] (2010) 720p Ukr/Eng


Жанр: бойовик, комедія, кримінальний
Країна: США



Кіностудія / кінокомпанія: Sony Pictures
Режисер: Адам МакКей
Актори: Вілл Ферелл, Дерек Джетер, Марк Волберґ, Єва Мендес, Майкл Кітон, Семюель Л. Джексон, Двейн Джонсон та інші
Рейтинг MPAA: (не рекомендовано до перегляду дітям до 13 років)

Сюжет:
Нью-Йоркські детективи Аллен Ґембл і Тері Гойтз ведуть поліцейську бухгалтерію. Ґемблу така робота в радість, Гойтцу — покарання. Коли напарникам випаде шанс вийти з тіні — прийти на допомогу своїм кумирам, детективам Денсону і Манцетті — стане ясно, що в бухгалтерію Ґембла і Гойтца заслали не дарма.


Тривалість: 01:47:27 (Театральна версія)
Якість: 720p
Відео:
кодек:
розмір кадру: 1280 х 534
бітрейт: 6318 кб/с

Аудіо # 1:
мова: українська
переклад: професійний дубльований | Blu-ray
кодек: 5.1
бітрейт: 640 кб/с
Про дубляж
Фільм надано компанією Columbia Pictures дубльовано LeDoyen Studio на замовлення компанії B&H Film Distribution
Переклад: Олекси Негребецького
Режисер дубляжу: Ольга Фокіна
Звукорежисер: Андрій Тріфонов
Координатор дубляжу: Валентина Левицька
Ролі дублювали: Ален Ґембл/Вілл Ферелл - Михайло Войчук, Марк Волберґ/Тері Гойтц - Андрій Самінін, Олександр Шевчук, Єва Мендез/Шейла Ґембл - Наталя Ярошенко, Майкл Кітон/Капітан Джин - Дмитро Завадський, Рей Стівенсон/Роджер Веслі - Олександр Ігнатуша, Деймон Вейнс мол./Фоз - Юрій Ребрик, Двейн Джонсон/Дейсон - Михайло Жонін, Енн Геч/Памела Бордмен - Людмила Ардельян, Олесь Гімбаржевський, Бобі Каннавел/Джиммі - Борис Георгієвський, Боб - Андрій Твердак та інші.
Аудіо # 2:
мова: англійська
переклад: оригінал
кодек: 5.1
бітрейт: 1536 кб/с

Оригінальні розділи:
Збережено

MediaInfo
General
Unique ID : 252260383267850041063179649405811761572 (0xBDC79524BCB9BAE898F330F9ECC121A4)
Complete name : F:\_TEMP\RELEASING\The Other Guys (2010)\Other Guys, The [Theatrical Cut] (2010) [Ukr, Eng] 720p [Hurtom].mkv
Format : Matroska
Format version : Version 4 / Version 2
File size : 6.48 GiB
Duration : 1h 47mn
Overall bit rate : 8 639 Kbps
Movie name : The Other Guys [Theatrical Cut] (2010) [Hurtom]
Encoded date : UTC 2013-03-16 15:37:42
Writing application : mkvmerge v6.1.0 ('Old Devil') built on Mar 2 2013 14:32:37
Writing library : libebml v1.3.0 + libmatroska v1.4.0

Video
ID : 1
Format : AVC
Format/Info : Advanced Video Codec
Format profile : [email protected]
Format settings, CABAC : Yes
Format settings, ReFrames : 10 frames
Codec ID : V_MPEG4/ISO/AVC
Duration : 1h 47mn
Bit rate : 6 318 Kbps
Width : 1 280 pixels
Height : 534 pixels
Display aspect ratio : 2.40:1
Frame rate mode : Constant
Frame rate : 23.976 fps
Color space : YUV
Chroma subsampling : 4:2:0
Bit depth : 8 bits
Scan type : Progressive
Bits/(Pixel*Frame) : 0.386
Stream size : 4.74 GiB (73%)
Writing library : core 108 r1790kMod 8eaf8a6
Encoding settings : cabac=1 / ref=10 / deblock=1:-3:-3 / analyse=0x3:0x113 / me=umh / subme=10 / psy=1 / psy_rd=1.00:0.00 / mixed_ref=1 / me_range=32 / chroma_me=1 / trellis=2 / 8x8dct=1 / cqm=0 / deadzone=21,11 / fast_pskip=0 / chroma_qp_offset=-2 / threads=6 / sliced_threads=0 / nr=0 / decimate=0 / interlaced=0 / constrained_intra=0 / bframes=10 / b_pyramid=2 / b_adapt=2 / b_bias=0 / direct=3 / weightb=1 / open_gop=0 / weightp=2 / keyint=250 / keyint_min=25 / scenecut=40 / intra_refresh=0 / rc=crf / mbtree=0 / crf=17.0000 / qcomp=0.60 / qpmin=10 / qpmax=51 / qpstep=4 / ip_ratio=1.40 / pb_ratio=1.30 / aq=1:0.75
Language : English
Default : Yes
Forced : No

Audio #1
ID : 2
Format : AC-3
Format/Info : Audio Coding 3
Mode extension : CM (complete main)
Format settings, Endianness : Big
Codec ID : A_AC3
Duration : 1h 47mn
Bit rate mode : Constant
Bit rate : 640 Kbps
Channel(s) : 6 channels
Channel positions : Front: L C R, Side: L R, LFE
Sampling rate : 48.0 KHz
Bit depth : 16 bits
Compression mode : Lossy
Stream size : 492 MiB (7%)
Title : 5.1 [640 Kbps] — професійний дубльований | Blu-ray
Language : Ukrainian
Default : Yes
Forced : No

Audio #2
ID : 3
Format :
Format/Info : Digital Theater Systems
Mode : 16
Format settings, Endianness : Big
Codec ID : A_DTS
Duration : 1h 47mn
Bit rate mode : Constant
Bit rate : 1 509 Kbps
Channel(s) : 6 channels
Channel positions : Front: L C R, Side: L R, LFE
Sampling rate : 48.0 KHz
Bit depth : 24 bits
Compression mode : Lossy
Stream size : 1.13 GiB (17%)
Title : 5.1 [1536 Kbps] — оригінал
Language : English
Default : No
Forced : No

Menu
00:00:00.000 : en:00:00:00.000
00:09:15.805 : en:00:09:15.805
00:13:24.595 : en:00:13:24.595
00:18:59.137 : en:00:18:59.137
00:26:06.731 : en:00:26:06.731
00:31:09.325 : en:00:31:09.325
00:35:42.765 : en:00:35:42.765
00:41:16.974 : en:00:41:16.974
00:48:16.309 : en:00:48:16.309
00:55:32.620 : en:00:55:32.620
01:01:22.428 : en:01:01:22.428
01:09:32.001 : en:01:09:32.001
01:17:23.013 : en:01:17:23.013
01:23:43.560 : en:01:23:43.560
01:30:27.880 : en:01:30:27.880
01:36:43.380 : en:01:36:43.380
Скріншоти






Цитата:
За фільмографії акторів подяка Віктору та Neo777.


Джерело:


 Трекер:    Зареєстрований   

Завантажити / скачати фільм українською



відео для новачків



 Зареєстрований:   2013-03-17 12:55
 Розмір:   6.48 GB 
 Оцінка фільму:   9.2/10 (Голосів: 9)
   
braveboy 
Відео Гуртом - команда HD
Відео Гуртом - команда HD


З нами з: 15.06.10
Востаннє: 29.10.16
Повідомлень: 958

2013-03-16 20:37  
ratbol
це театральна чи розширена версія?

patriot2305 
Почесний гуртомівець


З нами з: 23.04.11
Востаннє: 10.12.16
Повідомлень: 4145

2013-03-16 20:50  
braveboy написано:
це театральна чи розширена версія?

театралка

ratbol 
Модератор HD


З нами з: 03.02.09
Востаннє: 10.12.16
Повідомлень: 1088

2013-03-16 23:18  
patriot2305 написано:
театралка

Ага.

braveboy 
Відео Гуртом - команда HD
Відео Гуртом - команда HD


З нами з: 15.06.10
Востаннє: 29.10.16
Повідомлень: 958

2013-03-16 23:57  
ratbol
може краще розширену викласти?

ratbol 
Модератор HD


З нами з: 03.02.09
Востаннє: 10.12.16
Повідомлень: 1088

2013-03-17 12:32  
braveboy
Краще, щоб обидві версії були, окремо.

bot 
робот


З нами з: 30.09.07
Востаннє: 26.05.05
Повідомлень: 16046

2013-03-17 12:55  
Тему перенесено з Анонси релізів від Відео Гуртом до форуму Фільми в HD


ratbol

zerovij 
Новенький


З нами з: 14.12.12
Востаннє: 02.12.13
Повідомлень: 17

2013-03-17 13:22  
Дякую за реліз.
Тут є моменти без перекладу?

ratbol 
Модератор HD


З нами з: 03.02.09
Востаннє: 10.12.16
Повідомлень: 1088

2013-03-17 16:10  
zerovij написано:
Тут є моменти без перекладу?

Немає.

kacher2 
Свій


З нами з: 02.10.10
Востаннє: 05.11.16
Повідомлень: 128

2013-03-19 00:56  
Слабенько, особливо переклад.
Ваш часовий пояс: GMT + 2 Години

Нова тема   Відповісти