Завантажити та скачати торренти українською


LЮK (ЛЮК) - Tourist Zone (2003) [FLAC] | Rock / Funk

Нові коментарі

Нова тема   Відповісти
Останній раз роздавалося YuriiVO (2016-03-29)
Автор Повідомлення
fanDYNAMO 
Частий відвідувач


З нами з: 30.12.12
Востаннє: 05.12.16
Повідомлень: 38

2013-03-15 09:37  
LЮK (ЛЮК) - Tourist Zone (2003) [FLAC] | Rock / Funk

LЮK (ЛЮК) - Tourist Zone (2003) [FLAC] | Rock / Funk


Стиль: Funk Rock Fusion
Сайти: Офіційний сайт
Видавець: Partija Records
Виконавці:
Ольга Герасимова (Малая) — вокал
Олег Сердюк (Younnat) — клавішні, electro-перкусія, програмування
Сергей Бельмас (Дед Мороз) — бас-гітара
Валентин Панюта (uta) — гітара
Александр Кратинов (Крот) — ударні

Пісні:
    01. Ті ві (03:46)
    02. Цвинтар телевізорів (03:27)
    03. Саламандри (04:08)
    04. Майа (03:34)
    05. Хоп (04:04)
    06. Японська (01:42)
    07. Японська (remix) (02:11)
    08. Мама-Кока (03:40)
    09. Народження (06:39)
    10. Вона Це не В (03:42)
    11. Куба (02:43)
    12. Катя (03:34)
    13. Планетарій (02:35)
    14. Майа (remix) (02:09)
    15. Пісня про Срібні виделки (remix by DJ Mawrick) (05:10)

Тривалість: 00:53:12
Мова: українська (01-15)
Аудіо-кодек: FLAC
Бітрейт: ~999 кб/с
Джерело: Власний CD
Лог EAC
Exact Audio Copy V1.0 beta 3 from 29. August 2011

Отчёт EAC об извлечении, выполненном 14. марта 2013, 21:02

LЮK / Tourist Zone

Дисковод: HL-DT-STDVDRAM GH24NS90 Adapter: 2 ID: 0

Режим чтения : Достоверность
Использование точного потока : Да
Отключение кэша аудио : Да
Использование указателей C2 : Нет

Коррекция смещения при чтении : 6
Способность читать области Lead-in и Lead-out : Нет
Заполнение пропущенных сэмплов тишиной : Да
Удаление блоков с тишиной в начале и конце : Нет
При вычислениях CRC использовались нулевые сэмплы : Да
Интерфейс : Встроенный Win32-интерфейс для Win NT/2000

Выходной формат : Пользовательский кодировщик
Выбранный битрейт : 128 kBit/s
Качество : Высокий
Добавление ID3-тега : Нет
Утилита сжатия : C:\Program Files (x86)\Exact Audio Copy\Flac\flac.exe
Дополнительные параметры : -V -8 -T "Date=%year%" -T "Genre=%genre%" %source%

TOC извлечённого CD

Трек | Старт | Длительность | Начальный сектор | Конечный сектор
---------------------------------------------------------------------
1 | 0:00.00 | 3:46.25 | 0 | 16974
2 | 3:46.25 | 3:27.64 | 16975 | 32563
3 | 7:14.14 | 4:08.69 | 32564 | 51232
4 | 11:23.08 | 3:34.35 | 51233 | 67317
5 | 14:57.43 | 4:04.40 | 67318 | 85657
6 | 19:02.08 | 1:42.60 | 85658 | 93367
7 | 20:44.68 | 2:11.02 | 93368 | 103194
8 | 22:55.70 | 3:40.38 | 103195 | 119732
9 | 26:36.33 | 6:39.07 | 119733 | 149664
10 | 33:15.40 | 3:42.58 | 149665 | 166372
11 | 36:58.23 | 2:43.54 | 166373 | 178651
12 | 39:42.02 | 3:34.71 | 178652 | 194772
13 | 43:16.73 | 2:35.30 | 194773 | 206427
14 | 45:52.28 | 2:09.72 | 206428 | 216174
15 | 48:02.25 | 5:10.08 | 216175 | 239432

Характеристики диапазона извлечения и сообщения об ошибках

Выбранный диапазон

Имя файла D:\Новая папка (2)\LЮK - Tourist Zone (2003).wav

Пиковый уровень 100.0 %
Скорость извлечения 7.7 X
Качество диапазона 100.0 %
CRC теста 7F689C20
CRC копии 7F689C20
Копирование... OK

Ошибок не произошло

AccurateRip: сводка

Трек 1 : извлечено точно (доверие 1) [2AA766D4] (AR v1)
Трек 2 : извлечено точно (доверие 1) [9B6C761B] (AR v1)
Трек 3 : извлечено точно (доверие 1) [9EE85C75] (AR v1)
Трек 4 : извлечено точно (доверие 1) [82800A90] (AR v1)
Трек 5 : извлечено точно (доверие 1) [33412CE1] (AR v1)
Трек 6 : извлечено точно (доверие 1) [2C5D1D2B] (AR v1)
Трек 7 : извлечено точно (доверие 1) [B19095DF] (AR v1)
Трек 8 : извлечено точно (доверие 1) [AF5A77D0] (AR v1)
Трек 9 : извлечено точно (доверие 1) [0A29BE06] (AR v1)
Трек 10 : извлечено точно (доверие 1) [60572C98] (AR v1)
Трек 11 : извлечено точно (доверие 1) [21573721] (AR v1)
Трек 12 : извлечено точно (доверие 1) [AF722AD4] (AR v1)
Трек 13 : извлечено точно (доверие 1) [0F8E0004] (AR v1)
Трек 14 : извлечено точно (доверие 1) [3EE7765E] (AR v1)
Трек 15 : извлечено точно (доверие 1) [4391E6C4] (AR v1)

Все треки извлечены точно

Конец отчёта

==== Контрольная сумма отчёта D0D2FCA3244BAA1D42E76576A3D22639828155C2686CBE164E93AF0A3976893A ====
Зміст індексної карти (.cue)
REM GENRE Rock
REM DATE 2003
REM DISCID F90C780F
REM COMMENT "ExactAudioCopy v1.0b3"
PERFORMER "LЮK"
TITLE "Tourist Zone"
FILE "LЮK - Tourist Zone (2003).flac" WAVE
TRACK 01 AUDIO
TITLE "Ті ві"
PERFORMER "LЮK"
INDEX 01 00:00:00
TRACK 02 AUDIO
TITLE "Цвінтар телевізорів"
PERFORMER "LЮK"
INDEX 00 03:44:25
INDEX 01 03:46:25
TRACK 03 AUDIO
TITLE "Саламандри"
PERFORMER "LЮK"
INDEX 00 07:12:14
INDEX 01 07:14:14
TRACK 04 AUDIO
TITLE "Майа"
PERFORMER "LЮK"
INDEX 00 11:21:08
INDEX 01 11:23:08
TRACK 05 AUDIO
TITLE "Хоп"
PERFORMER "LЮK"
INDEX 00 14:55:43
INDEX 01 14:57:43
TRACK 06 AUDIO
TITLE "Японська"
PERFORMER "LЮK"
INDEX 00 19:00:08
INDEX 01 19:02:08
TRACK 07 AUDIO
TITLE "Японська (remix)"
PERFORMER "LЮK"
INDEX 00 20:42:68
INDEX 01 20:44:68
TRACK 08 AUDIO
TITLE "Мама-Кока"
PERFORMER "LЮK"
INDEX 00 22:53:70
INDEX 01 22:55:70
TRACK 09 AUDIO
TITLE "Народження"
PERFORMER "LЮK"
INDEX 00 26:34:33
INDEX 01 26:36:33
TRACK 10 AUDIO
TITLE "Вона Це не В"
PERFORMER "LЮK"
INDEX 00 33:13:40
INDEX 01 33:15:40
TRACK 11 AUDIO
TITLE "Куба"
PERFORMER "LЮK"
INDEX 00 36:56:23
INDEX 01 36:58:23
TRACK 12 AUDIO
TITLE "Катя"
PERFORMER "LЮK"
INDEX 00 39:40:02
INDEX 01 39:42:02
TRACK 13 AUDIO
TITLE "Планетарій"
PERFORMER "LЮK"
INDEX 00 43:14:73
INDEX 01 43:16:73
TRACK 14 AUDIO
TITLE "Майа (remix)"
PERFORMER "LЮK"
INDEX 00 45:50:28
INDEX 01 45:52:28
TRACK 15 AUDIO
TITLE "Пісня про Срібні виделки (remix by DJ Mawrick)"
PERFORMER "LЮK"
INDEX 00 48:00:25
INDEX 01 48:02:25
Лог auCDtect Task Manager
-----------------------

DON'T MODIFY THIS FILE

-----------------------

PERFORMER: auCDtect Task Manager, ver. 1.5.1RC6 build 1.5.1.7
Copyright (c) 2008-2010 y-soft. All rights reserved
http://y-soft.org

ANALYZER: auCDtect: CD records authenticity detector, version 0.8.2
Copyright (c) 2004 Oleg Berngardt. All rights reserved.
Copyright (c) 2004 Alexander Djourik. All rights reserved.

FILE: LЮK - Tourist Zone (2003).flac
Size: 398465061 Hash: 26FE358100C15C563F7B52B633779176 Accuracy: -m0
Conclusion: CDDA 100%
Signature: 3D480B679E2E0CDE9017AC1CE3724758F476BFEC


Срібний реліз (на рейтинг впливає 50% завантаженого)
 Трекер:    Зареєстрований   

Завантажити / скачати українську музику



відео для новачків



 Зареєстрований:   2013-03-15 09:37
 Розмір:   380 MB 
 Оцінка музики:   10/10 (Голосів: 6)
   
ssTAss 
Модератор музики


З нами з: 05.07.08
Востаннє: 10.12.16
Повідомлень: 10950

2013-03-15 12:45  
fanDYNAMO написано:
клавишные, electro-перкуссия, программирование

написати українською
і додайте під спойлер вміст лог-файлу, будь ласка

ssTAss 
Модератор музики


З нами з: 05.07.08
Востаннє: 10.12.16
Повідомлень: 10950

2013-03-17 22:46  
fanDYNAMO написано:
02. Цвінтар телевізорів

цвИнтар
fanDYNAMO написано:
(2003)

хм, а вони самі кажуть, що в 2002
якщо є можливість, зробіть, буль ласка, скани

Lev 
VIP


З нами з: 14.10.09
Востаннє: 09.12.16
Повідомлень: 1819

2013-03-19 20:08  
аж не віриться, що це було аж 10 років тому
fanDYNAMO 
Частий відвідувач


З нами з: 30.12.12
Востаннє: 05.12.16
Повідомлень: 38

2013-03-25 21:56  
ssTAss
скани зроблю пізніше - у відпустці я, а сканер на роботі

Ваш часовий пояс: GMT + 2 Години

Нова тема   Відповісти